За последнюю неделю опубликовано 25 новых материалов.
Инструкция новичку Путеводитель по форуму Прокси для Telegram Показать подсказки , это бомба!

Скачать Собор / La chiesa / The Church (1988) BDRip 1080p от HDReactor | P2, A бесплатно через торрент

  • Поучаствуй (в качестве покупателя) в любых пяти совместных покупках (кроме завершённых и "Моментальных") и получи группу "Новичок" навсегда -> ссылка на раздел
  • Получай до 480 рублей за каждого приглашенного пользователя!
    представляем Вам очередное расширение партнерской программы, подробности описаны тут -> ссылка
  • 90% материалов доступно к скачиванию после простой регистрации!
    Если же ты хочешь скачивать материалы без требования оставлять отзывы то получи группу "Новичок", 10 способов повышения описаны тут -> ссылка
  • К сожалению количество битых ссылок растет и мы уже не можем их оперативно восстанавливать поэтому просим помощи у каждого нашего пользователя.
    С сегодняшнего дня, за каждую восстановленную ссылку мы заплатим Вам.
    Подробнее тут -> ссылка
  • Перенесем твои заслуги с другого ресурса!
    Мы понимаем как сложно прокачивать аккаунты на форумах, вроде раскачал аккаунт, а тут появляется ресурс в 100 раз круче но тоже с системой прокачки и снова качать аккаунт...
    Предлагаем вам перенести Ваши заслуги на другом подобном ресурсе к нам.
    Подробности описаны тут -> ссылка
  • Вы можете получать по 2.5% с каждой покупки и продажи на маркете! Подробности в теме Партнёрская программа
Если Вы не хотите скачивать, Вы всегда можетепосмотретьонлайн, просто нажмите кнопку ниже :

Открыть плеер

Torrent_Bot

Торрент-Бот
Бот форума
4 Окт 2016
96
155
20
Информация о фильме
Название: Церковь (Собор)
Оригинальное название: La Chiesa (The Church)
Год выпуска: 1989
Жанр:Ужасы
Выпущено: Италия, ADC Films, Cecchi Gori Group Tiger Cinematografica, Reteitalia
Режиссер: Микеле Соави
В ролях: Хью Кваршай, Томас Арана, Фёдор Шаляпин мл., Барбара Куписти, Антонелла Витале, Джованни Ломбардо Радиче, Азия Ардженто, Роберто Карузо, Роберто Корбилетто, Алина Де Симоне, Оливия Куписти, Джанфранко Де Грасси, Клер Хардвик, Ларс Йоргенсон, Джон Карлсен, Риккардо Минервини

О фильме: Средние века. Тевтонские рыцари уничтожают деревню и убивают всех ее жителей, считающихся ведьмами и колдунами. Чтобы зло не могло распространиться по земле, рыцари хоронят их останки в огромном готическом соборе… Наши дни. В церковь прибывает новый библиотекарь Эван, где знакомится с девушкой Лизой, проводящей реставрационные работы. Вскоре они обнаруживают древний пергамент, в котором написано, что в подземелье существует неизвестное захоронение. Естественно, они ломают фундамент церкви и зло, хранившееся в подземелье несколько веков, вырывается наружу. Тела невинно убиенных людей поднимаются из могилы, и начинается кровавая эпопея. Во главе оказавшихся в церкви людей становится священник, отец Гус…



Продолжительность: 01:42:01
Перевод: Профессиональный двухголосый, авторский
Субтитры: отсутствуют



Файл
Качество: BDRip (1080p)
Видео: MPEG-4 AVC, 15.6 Мбит/с, 1800x1080
Аудио #1: Русский (AC3, 2 ch, 192 Кбит/с) - DVO
Аудио #2: Русский (AC3, 2 ch, 192 Кбит/с) - AVO (А.Гаврилов)
Аудио #3: Русский (AC3, 2 ch, 192 Кбит/с) - AVO (В.Штейн)
Аудио #4: Английский (AC3, 2 ch, 192 Кбит/с)

МедиаИнфо
Формат : Matroska
Версия формата : Version 2
Размер файла : 11,6 Гбайт
Продолжительность : 1 ч. 42 м.
Общий поток : 16,3 Мбит/сек
Название фильма : ~V ad~
Дата кодирования : UTC 2018-08-26 23:10:26
Программа кодирования : mkvmerge v6.5.0 ('Isn't she lovely') built on Oct 20 2013 12:50:05
Библиотека кодирования : libebml v1.3.0 + libmatroska v1.4.1
Обложка : Yes
Attachments : cover.jpg

Видео
Идентификатор : 1
Формат : AVC
Формат/Информация : Advanced Video Codec
Профиль формата : [email protected]
Настройки формата : CABAC / 4 Ref Frames
Параметр CABAC формата : Да
Параметр RefFrames формата : 4 кадра
Идентификатор кодека : V_MPEG4/ISO/AVC
Продолжительность : 1 ч. 42 м.
Битрейт : 15,6 Мбит/сек
Ширина : 1800 пикселей
Высота : 1080 пикселей
Соотношение сторон : 5:3
Режим частоты кадров : Постоянный
Частота кадров : 23,976 (24000/1001) кадра/сек
Цветовое пространство : YUV
Субдискретизация насыщенности : 4:2:0
Битовая глубина : 8 бит
Тип развёртки : Прогрессивная
Бит/(Пиксели*Кадры) : 0.334
Размер потока : 10,9 Гбайт (93%)
Заголовок : ~V~
Библиотека кодирования : x264 core 157 r2932 303c484
Настройки программы : cabac=1 / ref=4 / deblock=1:-3:-3 / analyse=0x3:0x133 / me=umh / subme=11 / psy=1 / psy_rd=1.00:0.00 / mixed_ref=1 / me_range=32 / chroma_me=1 / trellis=2 / 8x8dct=1 / cqm=0 / deadzone=21,11 / fast_pskip=0 / chroma_qp_offset=-2 / threads=12 / lookahead_threads=1 / sliced_threads=0 / nr=0 / decimate=0 / interlaced=0 / bluray_compat=0 / constrained_intra=0 / bframes=10 / b_pyramid=2 / b_adapt=2 / b_bias=0 / direct=3 / weightb=1 / open_gop=0 / weightp=2 / keyint=240 / keyint_min=23 / scenecut=40 / intra_refresh=0 / rc=2pass / mbtree=0 / bitrate=15575 / ratetol=1.0 / qcomp=0.80 / qpmin=0 / qpmax=69 / qpstep=4 / cplxblur=20.0 / qblur=0.5 / ip_ratio=1.24 / pb_ratio=1.30 / aq=3:0.80
Язык : Английский
Default : Да
Forced : Нет

Аудио #1
Идентификатор : 2
Формат : AC-3
Формат/Информация : Audio Coding 3
Идентификатор кодека : A_AC3
Продолжительность : 1 ч. 42 м.
Вид битрейта : Постоянный
Битрейт : 192 Кбит/сек
Каналы : 2 канала
Расположение каналов : Front: L R
Частота : 48,0 КГц
Частота кадров : 31,250 кадров/сек (1536 SPF)
Битовая глубина : 16 бит
Метод сжатия : С потерями
Размер потока : 140 Мбайт (1%)
Заголовок : MVO
Язык : Русский
Service Kind : Complete Main
Default : Да
Forced : Да

Аудио #2
Идентификатор : 3
Формат : AC-3
Формат/Информация : Audio Coding 3
Идентификатор кодека : A_AC3
Продолжительность : 1 ч. 42 м.
Вид битрейта : Постоянный
Битрейт : 192 Кбит/сек
Каналы : 2 канала
Расположение каналов : Front: L R
Частота : 48,0 КГц
Частота кадров : 31,250 кадров/сек (1536 SPF)
Битовая глубина : 16 бит
Метод сжатия : С потерями
Размер потока : 140 Мбайт (1%)
Заголовок : AVO [А.Гаврилов]
Язык : Русский
Service Kind : Complete Main
Default : Нет
Forced : Нет

Аудио #3
Идентификатор : 4
Формат : AC-3
Формат/Информация : Audio Coding 3
Идентификатор кодека : A_AC3
Продолжительность : 1 ч. 42 м.
Вид битрейта : Постоянный
Битрейт : 192 Кбит/сек
Каналы : 2 канала
Расположение каналов : Front: L R
Частота : 48,0 КГц
Частота кадров : 31,250 кадров/сек (1536 SPF)
Битовая глубина : 16 бит
Метод сжатия : С потерями
Размер потока : 140 Мбайт (1%)
Заголовок : AVO [В.Штейн]
Язык : Русский
Service Kind : Complete Main
Default : Нет
Forced : Нет

Аудио #4
Идентификатор : 5
Формат : AC-3
Формат/Информация : Audio Coding 3
Идентификатор кодека : A_AC3
Продолжительность : 1 ч. 42 м.
Вид битрейта : Постоянный
Битрейт : 192 Кбит/сек
Каналы : 2 канала
Расположение каналов : Front: L R
Частота : 48,0 КГц
Частота кадров : 31,250 кадров/сек (1536 SPF)
Битовая глубина : 16 бит
Метод сжатия : С потерями
Размер потока : 140 Мбайт (1%)
Язык : Английский
Service Kind : Complete Main
Default : Нет
Forced : Нет

Меню
00:00:00.000 : en:pROGRAM START/MAIN TITLES
00:01:39.031 : en:SERVANT OF SATAN
00:04:54.222 : en:HOLY SLAUGHTER
00:10:30.127 : en:THE CHURCH
00:15:15.030 : en:LEGION
00:18:39.071 : en:THE PARCHMENT
00:22:26.760 : en:"THE DEVIL IS EVERYWHERE"
00:28:41.776 : en:LITTLE LIAR
00:32:10.693 : en:APPARITIONS
00:37:31.701 : en:HELL UNLEASHED
00:42:50.138 : en:pOSSESSION
00:46:34.420 : en:NOISE AT THE WINDOW
00:50:12.389 : en:DEMON LUST
00:53:48.755 : en:REFLECTION OF EVIL
00:58:53.698 : en:CONFESSION
01:03:25.943 : en:DARK RITES
01:07:26.791 : en:FOUNTAIN OF TERROR
01:10:35.668 : en:BLOODY BRIDE
01:14:13.637 : en:DEADLY SECRET
01:19:44.098 : en:SUBWAY SPLATTER
01:23:01.259 : en:YOUNG AND BEAUTIFUL
01:26:44.806 : en:LOTTE'S MEMORIES
01:30:55.707 : en:BRIDE OF THE DEVIL
01:36:35.920 : en:GUIDED TOUR
01:39:56.288 : en:END CREDITS
Скриншоты


Сэмпл
Релиз от:
 

Вложения

  • 30,5 KB Просмотры: 1
    Личеров 0
    Сидеров 0
    Файлов 1
    Объем 11,6 GB

Привет!

Мы группа людей которые решили помочь другим в решении их проблем, а так же пользователям с поиском самых свежих и качественных инфопродуктов. За 4 с небольшим месяца мы создали этот форум на который заходят ежедневно тысячи человек и посещаемость постоянно растёт. Мы создали панель лицензирования для защиты PHP скриптов от воровства и SEO панель для мониторинга наших сайтов и выбора верной стратегии их развития. Мы надеемся что то что мы создали пригодится Вам и возможно Вы поможете нам развиваться и совершенствоваться вместе с Вами.

Статистика форума

Темы
406.518
Сообщения
464.551
Пользователи
82.839
Новый пользователь
Akropolis

Приложения форума для iOS и Android


У ркн там нет власти ;)
Приватные разговоры
Помощь Пользователи
    Вы не присоединились ни к одной комнате.