За последнюю неделю опубликовано 47 новых материалов.
Инструкция новичку Путеводитель по форуму Прокси для Telegram Показать подсказки , это бомба!

Скачать Сновидения / In Dreams (1999) WEB-DLRip-AVC | P2, A бесплатно через торрент

  • Поучаствуй (в качестве покупателя) в любых пяти совместных покупках (кроме завершённых и "Моментальных") и получи группу "Новичок" навсегда -> ссылка на раздел
  • Получай до 480 рублей за каждого приглашенного пользователя!
    представляем Вам очередное расширение партнерской программы, подробности описаны тут -> ссылка
  • 90% материалов доступно к скачиванию после простой регистрации!
    Если же ты хочешь скачивать материалы без требования оставлять отзывы то получи группу "Новичок", 10 способов повышения описаны тут -> ссылка
  • К сожалению количество битых ссылок растет и мы уже не можем их оперативно восстанавливать поэтому просим помощи у каждого нашего пользователя.
    С сегодняшнего дня, за каждую восстановленную ссылку мы заплатим Вам.
    Подробнее тут -> ссылка
  • Перенесем твои заслуги с другого ресурса!
    Мы понимаем как сложно прокачивать аккаунты на форумах, вроде раскачал аккаунт, а тут появляется ресурс в 100 раз круче но тоже с системой прокачки и снова качать аккаунт...
    Предлагаем вам перенести Ваши заслуги на другом подобном ресурсе к нам.
    Подробности описаны тут -> ссылка
  • Вы можете получать по 2.5% с каждой покупки и продажи на маркете! Подробности в теме Партнёрская программа
Если Вы не хотите скачивать, Вы всегда можетепосмотретьонлайн, просто нажмите кнопку ниже :

Открыть плеер

Torrent_Bot

Торрент-Бот
Бот форума
4 Окт 2016
93
160
20

Информация о фильме
Название: Сновидения
Оригинальное название: In Dreams
Год выхода: 1999
Жанр: Фэнтези, триллер, драма, экранизация
Режиссер: Нил Джордан
В ролях: Аннетт Бенинг, Эйдан Куинн, Кэти Сагона, Роберт Дауни мл., Роберт Уолш, Джон Фиоре, Кен Чизман, Дэннис Бутсикарис, Девон Коул Борисофф, Стивен Ри, Пруденс Райт Холмс, Лонни Фармер, Марго Мартиндэйл, Памела Пэйтон-Райт, Джеффри Видгор, Уолли Данн, Досси Пибоди, Джон Майкл Вон, Денис Кормье, Дороти Двайер, Кристал Бенн

О фильме:
Клэр и ее муж Пол - счастливые родители очаровательной дочурки, однажды пропавшей и найденной впоследствии мертвой. Этой жуткой трагедии предшествовали кошмарные видения Клэр, наблюдавшей во сне, как некто уводит девочку в неизвестном направлении. Это можно было бы принять за необъяснимое совпадение, но сны появлялись с регулярностью совершения еще нескольких похожих похищений и убийств. Сама женщина оказывается заложницей маньяка, которого она видит только своим подсознанием - он ни на шаг не отстает от нее, сводя с ума и провоцируя на самоубийство.



Страна: США
Студия: Amblin Entertainment, DreamWorks SKG
Продолжительность: 01:39:36
Перевод : Профессиональный (двухголосый закадровый) + авторский
Субтитры: Russian, English

Файл
Формат: Matroska
Качество: WEB-DLRip-AVC [In.Dreams.AMZN.monkee]
Видео: 1112x626 at 23.976 fps, [email protected], ~2998 kbps, 0.180 bpp
Аудио #1: AC3, 6 ch, ~448 kbps - | Русский | - DVO?
Аудио #2: AC3, 2 ch, ~192 kbps - | Русский | - AVO [Сергей Визгунов]
Аудио #3: AC3, 6 ch, ~448 kbps - | Английский | -
Формат субтитров: softsub (SRT)

***Релиз от:-=DoMiNo=-

M/I
x264 [info]: frame I:825 Avg QP:15.88 size: 61840
x264 [info]: frame P:30980 Avg QP:18.29 size: 28828
x264 [info]: frame B:111506 Avg QP:21.61 size: 11619
x264 [info]: consecutive B-frames: 1.5% 2.4% 5.4% 30.4% 14.2% 34.9% 5.3% 3.8% 1.3% 0.6% 0.3%

General
Format : Matroska
Format version : Version 4
File size : 2.84 GiB
Duration : 1 h 39 min
Overall bit rate : 4 088 kb/s
Movie name : Сновидения.(1999).WEB-DLRip-AVC.[-=DoMiNo=-]
Encoded date : UTC 2020-07-15 13:40:35
Writing application : mkvmerge v48.0.0 ('Fortress Around Your Heart') 64-bit
Writing library : libebml v1.4.0 + libmatroska v1.6.0
Cover : Yes
Attachments : Cover.jpg / Cover 2.jpg

Video
ID : 1
Format : AVC
Format/Info : Advanced Video Codec
Format profile : [email protected]
Format settings : CABAC / 11 Ref Frames
Format settings, CABAC : Yes
Format settings, Reference : 11 frames
Codec ID : V_MPEG4/ISO/AVC
Duration : 1 h 39 min
Bit rate : 2 998 kb/s
Width : 1 112 pixels
Height : 626 pixels
Display aspect ratio : 16:9
Frame rate mode : Constant
Frame rate : 23.976 (24000/1001) FPS
Color space : YUV
Chroma subsampling : 4:2:0
Bit depth : 8 bits
Scan type : Progressive
Bits/(Pixel*Frame) : 0.180
Stream size : 2.09 GiB (73%)
Title : -=DoMiNo=-
Writing library : x264 core 161 r3018 db0d417
Encoding settings : cabac=1 / ref=11 / deblock=1:-3:-3 / analyse=0x3:0x133 / me=umh / subme=10 / psy=1 / psy_rd=1.00:0.15 / mixed_ref=1 / me_range=32 / chroma_me=1 / trellis=2 / 8x8dct=1 / cqm=0 / deadzone=21,11 / fast_pskip=0 / chroma_qp_offset=-3 / threads=6 / lookahead_threads=1 / sliced_threads=0 / nr=0 / decimate=1 / interlaced=0 / bluray_compat=0 / constrained_intra=0 / bframes=10 / b_pyramid=2 / b_adapt=2 / b_bias=0 / direct=1 / weightb=1 / open_gop=0 / weightp=2 / keyint=250 / keyint_min=23 / scenecut=40 / intra_refresh=0 / rc_lookahead=60 / rc=crf / mbtree=0 / crf=20.5 / qcomp=0.65 / qpmin=0 / qpmax=69 / qpstep=4 / vbv_maxrate=50000 / vbv_bufsize=62500 / crf_max=0.0 / nal_hrd=none / filler=0 / ip_ratio=1.40 / pb_ratio=1.30 / aq=3:1.00
Language : English
Default : Yes
Forced : No
Color range : Limited
Color primaries : BT.709
Transfer characteristics : BT.709
Matrix coefficients : BT.709

Audio #1
ID : 2
Format : AC-3
Format/Info : Audio Coding 3
Commercial name : Dolby Digital
Codec ID : A_AC3
Duration : 1 h 39 min
Bit rate mode : Constant
Bit rate : 448 kb/s
Channel(s) : 6 channels
Channel layout : L R C LFE Ls Rs
Sampling rate : 48.0 kHz
Frame rate : 31.250 FPS (1536 SPF)
Compression mode : Lossy
Stream size : 319 MiB (11%)
Title : DVO
Language : Russian
Service kind : Complete Main
Default : Yes
Forced : No

Audio #2
ID : 3
Format : AC-3
Format/Info : Audio Coding 3
Commercial name : Dolby Digital
Codec ID : A_AC3
Duration : 1 h 39 min
Bit rate mode : Constant
Bit rate : 192 kb/s
Channel(s) : 2 channels
Channel layout : L R
Sampling rate : 48.0 kHz
Frame rate : 31.250 FPS (1536 SPF)
Compression mode : Lossy
Stream size : 137 MiB (5%)
Title : AVO_[Сергей Визгунов]
Language : Russian
Service kind : Complete Main
Default : No
Forced : No

Audio #3
ID : 4
Format : AC-3
Format/Info : Audio Coding 3
Commercial name : Dolby Digital
Codec ID : A_AC3
Duration : 1 h 39 min
Bit rate mode : Constant
Bit rate : 448 kb/s
Channel(s) : 6 channels
Channel layout : L R C LFE Ls Rs
Sampling rate : 48.0 kHz
Frame rate : 31.250 FPS (1536 SPF)
Compression mode : Lossy
Stream size : 319 MiB (11%)
Language : English
Service kind : Complete Main
Default : No
Forced : No

Text #1
ID : 5
Format : UTF-8
Codec ID : S_TEXT/UTF8
Codec ID/Info : UTF-8 Plain Text
Duration : 1 h 33 min
Bit rate : 0 b/s
Count of elements : 6
Stream size : 504 Bytes (0%)
Title : Forced
Language : Russian
Default : No
Forced : Yes

Text #2
ID : 6
Format : UTF-8
Codec ID : S_TEXT/UTF8
Codec ID/Info : UTF-8 Plain Text
Duration : 1 h 34 min
Bit rate : 63 b/s
Count of elements : 892
Stream size : 44.2 KiB (0%)
Language : Russian
Default : No
Forced : No

Text #3
ID : 7
Format : UTF-8
Codec ID : S_TEXT/UTF8
Codec ID/Info : UTF-8 Plain Text
Duration : 1 h 37 min
Bit rate : 52 b/s
Count of elements : 1152
Stream size : 37.0 KiB (0%)
Language : English
Default : No
Forced : No

Menu
00:00:00.000 : :Глава 01
00:05:30.000 : :Глава 02
00:11:00.000 : :Глава 03
00:16:30.000 : :Глава 04
00:22:00.000 : :Глава 05
00:27:30.000 : :Глава 06
00:33:00.000 : :Глава 07
00:38:30.000 : :Глава 08
00:44:00.000 : :Глава 09
00:49:30.000 : :Глава 10
00:55:00.000 : :Глава 11
01:00:30.000 : :Глава 12
01:06:00.000 : :Глава 13
01:11:30.000 : :Глава 14
01:17:00.000 : :Глава 15
01:22:30.000 : :Глава 16
01:28:00.000 : :Глава 17
01:33:30.000 : :Глава 18
01:39:00.000 : :Глава 19
Скриншоты
 

Вложения

  • 58 KB Просмотры: 0
    Личеров 0
    Сидеров 0
    Файлов 1
    Объем 2,8 GB

Привет!

Мы группа людей которые решили помочь другим в решении их проблем, а так же пользователям с поиском самых свежих и качественных инфопродуктов. За 4 с небольшим месяца мы создали этот форум на который заходят ежедневно тысячи человек и посещаемость постоянно растёт. Мы создали панель лицензирования для защиты PHP скриптов от воровства и SEO панель для мониторинга наших сайтов и выбора верной стратегии их развития. Мы надеемся что то что мы создали пригодится Вам и возможно Вы поможете нам развиваться и совершенствоваться вместе с Вами.

Статистика форума

Темы
406.640
Сообщения
465.115
Пользователи
84.582
Новый пользователь
mladshiy

Приложения форума для iOS и Android


У ркн там нет власти ;)
Приватные разговоры
Помощь Пользователи
    Вы не присоединились ни к одной комнате.