За последнюю неделю опубликовано 57 новых материалов.
Инструкция новичку Путеводитель по форуму Прокси для Telegram Показать подсказки , это бомба!

Скачать Снайпер: Финал убийцы / Sniper: Assassin's End (2020) BDRemux 1080p от селезень | Лицензия бесплатно через торрент

  • Поучаствуй (в качестве покупателя) в любых пяти совместных покупках (кроме завершённых и "Моментальных") и получи группу "Новичок" навсегда -> ссылка на раздел
  • Получай до 480 рублей за каждого приглашенного пользователя!
    представляем Вам очередное расширение партнерской программы, подробности описаны тут -> ссылка
  • 90% материалов доступно к скачиванию после простой регистрации!
    Если же ты хочешь скачивать материалы без требования оставлять отзывы то получи группу "Новичок", 10 способов повышения описаны тут -> ссылка
  • К сожалению количество битых ссылок растет и мы уже не можем их оперативно восстанавливать поэтому просим помощи у каждого нашего пользователя.
    С сегодняшнего дня, за каждую восстановленную ссылку мы заплатим Вам.
    Подробнее тут -> ссылка
  • Перенесем твои заслуги с другого ресурса!
    Мы понимаем как сложно прокачивать аккаунты на форумах, вроде раскачал аккаунт, а тут появляется ресурс в 100 раз круче но тоже с системой прокачки и снова качать аккаунт...
    Предлагаем вам перенести Ваши заслуги на другом подобном ресурсе к нам.
    Подробности описаны тут -> ссылка
  • Вы можете получать по 2.5% с каждой покупки и продажи на маркете! Подробности в теме Партнёрская программа
Если Вы не хотите скачивать, Вы всегда можетепосмотретьонлайн, просто нажмите кнопку ниже :

Открыть плеер

Torrent_Bot

Торрент-Бот
Бот форума
4 Окт 2016
92
163
20


Информация о фильме
Название: Снайпер: Финал убийцы
Оригинальное название: Sniper: Assassin's End
Год выхода: 2020
Жанр: Боевик
Режиссер: Кааре Эндрюс
В ролях: Саяка Акимото, Том Беренджер, Чад Коллинз, С. Эрнст Харт, Локлин Манро, Саша Пилцин, Райан Роббинс



О фильме: Спецагент снайпер Брандон Беккет объявлен главным подозреваемым в убийстве иностранного сановника накануне подписания громкого торгового соглашения с Соединенными Штатами. Убегая от преследования, Беккет понимает, что тёмный оперативник работает от имени правительства, и ищет поддержки у единственного человека, которому он может доверять - у своего отца, легендарного снайпера. Оба Беккета находятся в бегах от ЦРУ, российских наемников и посланницы якудза - Леди Смерти, чьи снайперские навыки превосходят умения легендарных стрелков.

Страна: США
Студия: Destination Films, Sony Pictures Home Entertainment
Продолжительность: 01:35:06
Перевод: Профессиональный многоголосый | Лицензия

Качество: BDRemux 1080p
Видео: MPEG-4 AVC, 1920x1080, 24843 Kbit/s, 23.976 fps
Аудио #01: 48 kHz, AC3, 5.1, 640 Kbps | Лицензия | RUS |
Аудио #02: 48 kHz, DTS-HD MA, 5.1, 2155 Kbps | Оригинал | ENG |
Субтитры: Русские (Forced, full), английские




MI
General
Unique ID : 242858705128217254282234616296817903322 (0xB6B4E29F7DF1DF33E2FBB520664146DA)
Complete name : E:Video111Sniper.Assassin's.End.2020.BDREMUX.1080p.seleZen.mkv
Format : Matroska
Format version : Version 4
File size : 18.4 GiB
Duration : 1 h 35 min
Overall bit rate mode : Variable
Overall bit rate : 27.6 Mb/s
Movie name : Sniper Assassin s End 2020 from селезень
Encoded date : UTC 2020-06-10 23:14:46
Writing application : mkvmerge v40.0.0 ('Old Town Road + Pony') 64-bit
Writing library : libebml v1.3.9 + libmatroska v1.5.2

Video
ID : 1
Format : AVC
Format/Info : Advanced Video Codec
Format profile : [email protected]
Format settings : CABAC / 2 Ref Frames
Format settings, CABAC : Yes
Format settings, Reference : 2 frames
Codec ID : V_MPEG4/ISO/AVC
Duration : 1 h 35 min
Bit rate mode : Variable
Bit rate : 24.8 Mb/s
Width : 1 920 pixels
Height : 1 080 pixels
Display aspect ratio : 16:9
Frame rate mode : Constant
Frame rate : 23.976 (24000/1001) FPS
Color space : YUV
Chroma subsampling : 4:2:0
Bit depth : 8 bits
Scan type : Progressive
Bits/(Pixel*Frame) : 0.500
Stream size : 16.5 GiB (90%)
Language : English
Default : Yes
Forced : No

Audio #1
ID : 2
Format : AC-3
Format/Info : Audio Coding 3
Commercial name : Dolby Digital
Codec ID : A_AC3
Duration : 1 h 35 min
Bit rate mode : Constant
Bit rate : 640 kb/s
Channel(s) : 6 channels
Channel layout : L R C LFE Ls Rs
Sampling rate : 48.0 kHz
Frame rate : 31.250 FPS (1536 SPF)
Compression mode : Lossy
Stream size : 435 MiB (2%)
Title : MVO [License]
Language : Russian
Service kind : Complete Main
Default : Yes
Forced : Yes

Audio #2
ID : 3
Format : DTS XLL
Format/Info : Digital Theater Systems
Commercial name : DTS-HD Master Audio
Codec ID : A_DTS
Duration : 1 h 35 min
Bit rate mode : Variable
Bit rate : 2 155 kb/s
Channel(s) : 6 channels
Channel layout : C L R Ls Rs LFE
Sampling rate : 48.0 kHz
Frame rate : 93.750 FPS (512 SPF)
Bit depth : 16 bits
Compression mode : Lossless
Stream size : 1.43 GiB (8%)
Title : Original
Language : English
Default : No
Forced : No

Text #1
ID : 4
Format : UTF-8
Codec ID : S_TEXT/UTF8
Codec ID/Info : UTF-8 Plain Text
Duration : 44 min 15 s
Bit rate : 1 b/s
Count of elements : 7
Stream size : 407 Bytes (0%)
Title : Forced
Language : Russian
Default : Yes
Forced : Yes

Text #2
ID : 5
Format : UTF-8
Codec ID : S_TEXT/UTF8
Codec ID/Info : UTF-8 Plain Text
Duration : 1 h 34 min
Bit rate : 67 b/s
Count of elements : 921
Stream size : 47.0 KiB (0%)
Title : Full
Language : Russian
Default : No
Forced : No

Text #3
ID : 6
Format : UTF-8
Codec ID : S_TEXT/UTF8
Codec ID/Info : UTF-8 Plain Text
Duration : 1 h 29 min
Bit rate : 49 b/s
Count of elements : 901
Stream size : 32.7 KiB (0%)
Title : Full
Language : English
Default : No
Forced : No

Menu
00:00:00.000 : en:Chapter 1
00:06:06.783 : en:Chapter 2
00:13:02.073 : en:Chapter 3
00:19:36.592 : en:Chapter 4
00:25:37.745 : en:Chapter 5
00:31:26.593 : en:Chapter 6
00:37:11.938 : en:Chapter 7
00:42:04.480 : en:Chapter 8
00:47:22.715 : en:Chapter 9
00:53:11.313 : en:Chapter 10
01:01:50.916 : en:Chapter 11
01:05:07.320 : en:Chapter 12
01:08:12.672 : en:Chapter 13
01:12:33.516 : en:Chapter 14
01:19:43.320 : en:Chapter 15
01:28:07.949 : en:Chapter 16

Релиз от:

 

Вложения

  • 23,9 KB Просмотры: 0
    Личеров 0
    Сидеров 0
    Файлов 1
    Объем 18,4 GB

Привет!

Мы группа людей которые решили помочь другим в решении их проблем, а так же пользователям с поиском самых свежих и качественных инфопродуктов. За 4 с небольшим месяца мы создали этот форум на который заходят ежедневно тысячи человек и посещаемость постоянно растёт. Мы создали панель лицензирования для защиты PHP скриптов от воровства и SEO панель для мониторинга наших сайтов и выбора верной стратегии их развития. Мы надеемся что то что мы создали пригодится Вам и возможно Вы поможете нам развиваться и совершенствоваться вместе с Вами.

Статистика форума

Темы
406.699
Сообщения
465.164
Пользователи
84.823
Новый пользователь
servet2510

Приложения форума для iOS и Android


У ркн там нет власти ;)
Приватные разговоры
Помощь Пользователи
    Вы не присоединились ни к одной комнате.