За последнюю неделю опубликовано 73 новых материалов.
Инструкция новичку Путеводитель по форуму Прокси для Telegram Показать подсказки , это бомба!

Скачать Смертельная битва / Mortal Kombat (1995) BDRemux 1080p | P, P2, A бесплатно через торрент

  • Поучаствуй (в качестве покупателя) в любых пяти совместных покупках (кроме завершённых и "Моментальных") и получи группу "Новичок" навсегда -> ссылка на раздел
  • Получай до 480 рублей за каждого приглашенного пользователя!
    представляем Вам очередное расширение партнерской программы, подробности описаны тут -> ссылка
  • 90% материалов доступно к скачиванию после простой регистрации!
    Если же ты хочешь скачивать материалы без требования оставлять отзывы то получи группу "Новичок", 10 способов повышения описаны тут -> ссылка
  • К сожалению количество битых ссылок растет и мы уже не можем их оперативно восстанавливать поэтому просим помощи у каждого нашего пользователя.
    С сегодняшнего дня, за каждую восстановленную ссылку мы заплатим Вам.
    Подробнее тут -> ссылка
  • Перенесем твои заслуги с другого ресурса!
    Мы понимаем как сложно прокачивать аккаунты на форумах, вроде раскачал аккаунт, а тут появляется ресурс в 100 раз круче но тоже с системой прокачки и снова качать аккаунт...
    Предлагаем вам перенести Ваши заслуги на другом подобном ресурсе к нам.
    Подробности описаны тут -> ссылка
  • Вы можете получать по 2.5% с каждой покупки и продажи на маркете! Подробности в теме Партнёрская программа
Если Вы не хотите скачивать, Вы всегда можетепосмотретьонлайн, просто нажмите кнопку ниже :

Открыть плеер

Torrent_Bot

Торрент-Бот
Бот форума
4 Окт 2016
82
186
20


Страна: США, Тайланд.
Студия: New Line Cinema
Жанр: фантастика, фэнтези, боевик, триллер, приключения
Год выпуска: 1995
Продолжительность: 01:41:25

Перевод 01-03: Профессиональный (многоголосый закадровый) | Jaskier, R5, «Селена Интернешнл» по заказу ОРТ
Перевод 04-06, 16: Профессиональный (двухголосый закадровый) | DDV, CP Digital, НТВ/СТС/ТВЦ/Россия 1, Новий канал
Перевод 07-12: Авторский (одноголосый закадровый) | Ю. Сербин, Ю. Живов, А. Гаврилов, А. Дольский, С. Визгунов
Перевод 13-15: Одноголосый закадровый | RussianGuy27/С. Черкасов, Неизвестный
Субтитры: русские, английские
Оригинальная аудиодорожка: английская

Режиссер: Пол У.С. Андерсон / Paul W.S. Anderson
В ролях: Кристофер Ламберт, Робин Шу, Линден Эшби, Кэри-Хироюки Тагава, Бриджет Уилсон, Талиса Сото, Трэвор Годдард, Крис Касамасса, Франсуа Пети, Кит Кук

Описание: Несколько столетий назад Шанг Тсунг — маг из потустороннего мира захватил в свои руки древний воинский турнир. Его цель — ввергнуть наш мир в хаос. Чтобы спасти человечество от гибели, троим воинам предстоит битва… смертельная битва с силами мрака....

Доп. информация: Дорожки 01, 07-10 были получены путем наложения голоса на центральный канал (за перевод А. Дольского спасибо пользователю timur1965).
Дорожка CP Digital была перекодирована из 5.1 в стерео (использован софт Sonic Foundry Soft Encode), потому что эта дорожка была дутая из стерео.
Дорожки ОРТ и НТВ - это исходные записи с ТВ, а не DTS-HD MA, которые есть на треккере, но сомнительного качества. На центральный канал английской дорожки был наложен не чистый голос, а фрагменты с переводом, от этого музыка в некоторых местах то играет на центре, то прерывается когда не произносится перевод.

Тип релиза: BDRemux 1080p
Контейнер: MKV
Видео: x264, 19952 kbps, 1920x1080, 16:9, 23.976 fps
Аудио 01: | DTS-HD MA | 48 KHz | 5.1 | 24 bits | 4179 kbps (DTS Core: 1510 kbps) | Профессиональный (многоголосый закадровый) | Jaskier
Аудио 02: | AC3 | 48 KHz | 5.1 | 384 kbps | Профессиональный (многоголосый закадровый) | R5
Аудио 03: | AC3 | 48 KHz | Dual Mono | 192 kbps | Профессиональный (многоголосый закадровый) | «Селена Интернешнл» по заказу ОРТ
Аудио 04: | AC3 | 48 KHz | 5.1 | 384 kbps | Профессиональный (двухголосый закадровый) | DDV
Аудио 05: | AC3 | 48 KHz | 2.0 | 192 kbps | Профессиональный (двухголосый закадровый) | CP Digital
Аудио 06: | AC3 | 48 KHz | 2.0 | 192 kbps | Профессиональный (двухголосый закадровый) | НТВ/СТС/ТВЦ/Россия 1
Аудио 07: | DTS-HD MA | 48 KHz | 5.1 | 24 bits | 4228 kbps (DTS Core: 1510 kbps) | Авторский (одноголосый закадровый) | Ю. Сербин
Аудио 08: | DTS-HD MA | 48 KHz | 5.1 | 24 bits | 4178 kbps (DTS Core: 1510 kbps) | Авторский (одноголосый закадровый) | Ю. Живов (Новый перевод)
Аудио 09: | DTS-HD MA | 48 KHz | 5.1 | 24 bits | 4173 kbps (DTS Core: 1510 kbps) | Авторский (одноголосый закадровый) | А. Гаврилов
Аудио 10: | DTS-HD MA | 48 KHz | 5.1 | 24 bits | 4201 kbps (DTS Core: 1510 kbps) | Авторский (одноголосый закадровый) | А. Дольский
Аудио 11: | AC3 | 48 KHz | Dual Mono | 192 kbps | Авторский (одноголосый закадровый) | С. Визгунов (VHS)
Аудио 12: | AC3 | 48 KHz | Dual Mono | 192 kbps | Авторский (одноголосый закадровый) | Ю. Живов (Старый перевод) (VHS)
Аудио 13: | AC3 | 48 KHz | 5.1 | 384 kbps | Одноголосый закадровый | RussianGuy27/С. Черкасов (Новый перевод)
Аудио 14: | AC3 | 48 KHz | 2.0 | 192 kbps | Одноголосый закадровый | RussianGuy27/С. Черкасов (Старый перевод)
Аудио 15: | AC3 | 48 KHz | Dual Mono | 192 kbps | Одноголосый закадровый | Неизвестный (VHS)
Аудио 16: | AC3 | 48 KHz | Dual Mono | 192 kbps | Профессиональный (двухголосый закадровый) | Новий канал
Аудио 17: | DTS-HD MA | 48 KHz | 5.1 | 24 bits | 4176 kbps (DTS Core: 1510 kbps) | Original
Субтитры 01, 03: | prerendered (Blu-ray/PGS/SUP)
Субтитры 02, 04: | softsub (SRT)
Сэмпл: Mortal.Kombat.1995.BDRemux.1080p.15xRus.Ukr.Eng (1).mkv
Почему здесь нет русского дубляжа?
В интернетах существует любительский дубляж от студии "Петербургский дубляж" и вот почему его здесь нет:
- голоса не соответствуют возрасту актеров, перевод не верный;
- полностью удалили центральный канал из 5.1, от этого некоторые звуковые эффекты пропали, соответственно дорожку собрали в стерео.
К тому же на другом треккере его раздавать запрещено. Поэтому прошу тех людей, которые будут раздавать на треккере этот дубляж, указывать эту информацию.
MediaInfo
Общее
Уникальный идентификатор : 281327422865433411680053889949286994997 (0xD3A5B0D77121DA89B275BCB559B71435)
Полное имя : C:Mortal.Kombat.1995.BDRemux.1080p.15xRus.Ukr.Eng.mkv
Формат : Matroska
Версия формата : Version 4
Размер файла : 33,9 Гбайт
Продолжительность : 1 ч. 41 м.
Режим общего битрейта : Переменный
Общий поток : 47,8 Мбит/сек
Дата кодирования : UTC 2019-06-12 13:31:19
Программа кодирования : mkvmerge v34.0.0 ('Sight and Seen') 64-bit
Библиотека кодирования : libebml v1.3.7 + libmatroska v1.5.0

Видео
Идентификатор : 1
Формат : AVC
Формат/Информация : Advanced Video Codec
Профиль формата : [email protected]
Настройки формата : CABAC / 2 Ref Frames
Параметр CABAC формата : Да
Параметр RefFrames формата : 2 кадра
Параметр GOP формата : M=1, N=10
Идентификатор кодека : V_MPEG4/ISO/AVC
Продолжительность : 1 ч. 41 м.
Вид битрейта : Переменный
Битрейт : 20,0 Мбит/сек
Ширина : 1920 пикселей
Высота : 1080 пикселей
Соотношение сторон : 16:9
Режим частоты кадров : Постоянный
Частота кадров : 23,976 (24000/1001) кадра/сек
Цветовое пространство : YUV
Субдискретизация насыщенности : 4:2:0
Битовая глубина : 8 бит
Тип развёртки : Прогрессивная
Бит/(Пиксели*Кадры) : 0.401
Размер потока : 14,1 Гбайт (42%)
Default : Да
Forced : Нет

Аудио #1
Идентификатор : 2
Формат : DTS XLL
Формат/Информация : Digital Theater Systems
Коммерческое название : DTS-HD Master Audio
Идентификатор кодека : A_DTS
Продолжительность : 1 ч. 41 м.
Вид битрейта : Переменный
Битрейт : 4178 Кбит/сек
Каналы : 6 каналов
ChannelLayout : C L R Ls Rs LFE
Частота : 48,0 КГц
Частота кадров : 93,750 кадра/сек (512 SPF)
Битовая глубина : 24 бит
Метод сжатия : Без потерь
Размер потока : 2,96 Гбайт (9%)
Заголовок : MVO | Jaskier
Язык : Russian
Default : Да
Forced : Нет

Аудио #2
Идентификатор : 3
Формат : AC-3
Формат/Информация : Audio Coding 3
Коммерческое название : Dolby Digital
Идентификатор кодека : A_AC3
Продолжительность : 1 ч. 41 м.
Вид битрейта : Постоянный
Битрейт : 384 Кбит/сек
Каналы : 6 каналов
ChannelLayout : L R C LFE Ls Rs
Частота : 48,0 КГц
Частота кадров : 31,250 кадров/сек (1536 SPF)
Битовая глубина : 16 бит
Метод сжатия : С потерями
Размер потока : 279 Мбайт (1%)
Заголовок : MVO | R5
Язык : Russian
ServiceKind : Complete Main
Default : Нет
Forced : Нет

Аудио #3
Идентификатор : 4
Формат : AC-3
Формат/Информация : Audio Coding 3
Коммерческое название : Dolby Digital
Идентификатор кодека : A_AC3
Продолжительность : 1 ч. 41 м.
Вид битрейта : Постоянный
Битрейт : 192 Кбит/сек
Каналы : 2 канала
ChannelLayout : L R
Частота : 48,0 КГц
Частота кадров : 31,250 кадров/сек (1536 SPF)
Битовая глубина : 16 бит
Метод сжатия : С потерями
Размер потока : 139 Мбайт (0%)
Заголовок : MVO | ОРТ
Язык : Russian
ServiceKind : Complete Main
Default : Нет
Forced : Нет

Аудио #4
Идентификатор : 5
Формат : AC-3
Формат/Информация : Audio Coding 3
Коммерческое название : Dolby Digital
Идентификатор кодека : A_AC3
Продолжительность : 1 ч. 41 м.
Вид битрейта : Постоянный
Битрейт : 384 Кбит/сек
Каналы : 6 каналов
ChannelLayout : L R C LFE Ls Rs
Частота : 48,0 КГц
Частота кадров : 31,250 кадров/сек (1536 SPF)
Битовая глубина : 16 бит
Метод сжатия : С потерями
Размер потока : 279 Мбайт (1%)
Заголовок : DVO | DDV
Язык : Russian
ServiceKind : Complete Main
Default : Нет
Forced : Нет

Аудио #5
Идентификатор : 6
Формат : AC-3
Формат/Информация : Audio Coding 3
Коммерческое название : Dolby Digital
Идентификатор кодека : A_AC3
Продолжительность : 1 ч. 41 м.
Вид битрейта : Постоянный
Битрейт : 192 Кбит/сек
Каналы : 2 канала
ChannelLayout : L R
Частота : 48,0 КГц
Частота кадров : 31,250 кадров/сек (1536 SPF)
Битовая глубина : 16 бит
Метод сжатия : С потерями
Размер потока : 139 Мбайт (0%)
Заголовок : DVO | CP Digital
Язык : Russian
ServiceKind : Complete Main
Default : Нет
Forced : Нет

Аудио #6
Идентификатор : 7
Формат : AC-3
Формат/Информация : Audio Coding 3
Коммерческое название : Dolby Digital
Идентификатор кодека : A_AC3
Продолжительность : 1 ч. 41 м.
Вид битрейта : Постоянный
Битрейт : 192 Кбит/сек
Каналы : 2 канала
ChannelLayout : L R
Частота : 48,0 КГц
Частота кадров : 31,250 кадров/сек (1536 SPF)
Битовая глубина : 16 бит
Метод сжатия : С потерями
Размер потока : 139 Мбайт (0%)
Заголовок : DVO | НТВ/СТС/ТВЦ/Россия 1
Язык : Russian
ServiceKind : Complete Main
Default : Нет
Forced : Нет

Аудио #7
Идентификатор : 8
Формат : DTS XLL
Формат/Информация : Digital Theater Systems
Коммерческое название : DTS-HD Master Audio
Идентификатор кодека : A_DTS
Продолжительность : 1 ч. 41 м.
Вид битрейта : Переменный
Битрейт : 4228 Кбит/сек
Каналы : 6 каналов
ChannelLayout : C L R Ls Rs LFE
Частота : 48,0 КГц
Частота кадров : 93,750 кадра/сек (512 SPF)
Битовая глубина : 24 бит
Метод сжатия : Без потерь
Размер потока : 3,00 Гбайт (9%)
Заголовок : AVO | Ю. Сербин
Язык : Russian
Default : Нет
Forced : Нет

Аудио #8
Идентификатор : 9
Формат : DTS XLL
Формат/Информация : Digital Theater Systems
Коммерческое название : DTS-HD Master Audio
Идентификатор кодека : A_DTS
Продолжительность : 1 ч. 41 м.
Вид битрейта : Переменный
Битрейт : 4178 Кбит/сек
Каналы : 6 каналов
ChannelLayout : C L R Ls Rs LFE
Частота : 48,0 КГц
Частота кадров : 93,750 кадра/сек (512 SPF)
Битовая глубина : 24 бит
Метод сжатия : Без потерь
Размер потока : 2,96 Гбайт (9%)
Заголовок : AVO | Ю. Живов (Новый перевод)
Язык : Russian
Default : Нет
Forced : Нет

Аудио #9
Идентификатор : 10
Формат : DTS XLL
Формат/Информация : Digital Theater Systems
Коммерческое название : DTS-HD Master Audio
Идентификатор кодека : A_DTS
Продолжительность : 1 ч. 41 м.
Вид битрейта : Переменный
Битрейт : 4173 Кбит/сек
Каналы : 6 каналов
ChannelLayout : C L R Ls Rs LFE
Частота : 48,0 КГц
Частота кадров : 93,750 кадра/сек (512 SPF)
Битовая глубина : 24 бит
Метод сжатия : Без потерь
Размер потока : 2,96 Гбайт (9%)
Заголовок : AVO | А. Гаврилов
Язык : Russian
Default : Нет
Forced : Нет

Аудио #10
Идентификатор : 11
Формат : DTS XLL
Формат/Информация : Digital Theater Systems
Коммерческое название : DTS-HD Master Audio
Идентификатор кодека : A_DTS
Продолжительность : 1 ч. 41 м.
Вид битрейта : Переменный
Битрейт : 4201 Кбит/сек
Каналы : 6 каналов
ChannelLayout : C L R Ls Rs LFE
Частота : 48,0 КГц
Частота кадров : 93,750 кадра/сек (512 SPF)
Битовая глубина : 24 бит
Метод сжатия : Без потерь
Размер потока : 2,98 Гбайт (9%)
Заголовок : AVO | А. Дольский
Язык : Russian
Default : Нет
Forced : Нет

Аудио #11
Идентификатор : 12
Формат : AC-3
Формат/Информация : Audio Coding 3
Коммерческое название : Dolby Digital
Идентификатор кодека : A_AC3
Продолжительность : 1 ч. 41 м.
Вид битрейта : Постоянный
Битрейт : 192 Кбит/сек
Каналы : 2 канала
ChannelLayout : L R
Частота : 48,0 КГц
Частота кадров : 31,250 кадров/сек (1536 SPF)
Битовая глубина : 16 бит
Метод сжатия : С потерями
Размер потока : 139 Мбайт (0%)
Заголовок : AVO | С. Визгунов (VHS)
Язык : Russian
ServiceKind : Complete Main
Default : Нет
Forced : Нет

Аудио #12
Идентификатор : 13
Формат : AC-3
Формат/Информация : Audio Coding 3
Коммерческое название : Dolby Digital
Идентификатор кодека : A_AC3
Продолжительность : 1 ч. 41 м.
Вид битрейта : Постоянный
Битрейт : 192 Кбит/сек
Каналы : 2 канала
ChannelLayout : L R
Частота : 48,0 КГц
Частота кадров : 31,250 кадров/сек (1536 SPF)
Битовая глубина : 16 бит
Метод сжатия : С потерями
Размер потока : 139 Мбайт (0%)
Заголовок : AVO | Ю. Живов (Старый перевод) (VHS)
Язык : Russian
ServiceKind : Complete Main
Default : Нет
Forced : Нет

Аудио #13
Идентификатор : 14
Формат : AC-3
Формат/Информация : Audio Coding 3
Коммерческое название : Dolby Digital
Идентификатор кодека : A_AC3
Продолжительность : 1 ч. 41 м.
Вид битрейта : Постоянный
Битрейт : 384 Кбит/сек
Каналы : 6 каналов
ChannelLayout : L R C LFE Ls Rs
Частота : 48,0 КГц
Частота кадров : 31,250 кадров/сек (1536 SPF)
Битовая глубина : 16 бит
Метод сжатия : С потерями
Размер потока : 279 Мбайт (1%)
Заголовок : VO | RussianGuy27/С. Черкасов (Новый перевод)
Язык : Russian
ServiceKind : Complete Main
Default : Нет
Forced : Нет

Аудио #14
Идентификатор : 15
Формат : AC-3
Формат/Информация : Audio Coding 3
Коммерческое название : Dolby Digital
Идентификатор кодека : A_AC3
Продолжительность : 1 ч. 41 м.
Вид битрейта : Постоянный
Битрейт : 192 Кбит/сек
Каналы : 2 канала
ChannelLayout : L R
Частота : 48,0 КГц
Частота кадров : 31,250 кадров/сек (1536 SPF)
Битовая глубина : 16 бит
Метод сжатия : С потерями
Размер потока : 139 Мбайт (0%)
Заголовок : VO | RussianGuy27/С. Черкасов (Старый перевод)
Язык : Russian
ServiceKind : Complete Main
Default : Нет
Forced : Нет

Аудио #15
Идентификатор : 16
Формат : AC-3
Формат/Информация : Audio Coding 3
Коммерческое название : Dolby Digital
Идентификатор кодека : A_AC3
Продолжительность : 1 ч. 41 м.
Вид битрейта : Постоянный
Битрейт : 192 Кбит/сек
Каналы : 2 канала
ChannelLayout : L R
Частота : 48,0 КГц
Частота кадров : 31,250 кадров/сек (1536 SPF)
Битовая глубина : 16 бит
Метод сжатия : С потерями
Размер потока : 139 Мбайт (0%)
Заголовок : VO | Неизвестный (VHS)
Язык : Russian
ServiceKind : Complete Main
Default : Нет
Forced : Нет

Аудио #16
Идентификатор : 17
Формат : AC-3
Формат/Информация : Audio Coding 3
Коммерческое название : Dolby Digital
Идентификатор кодека : A_AC3
Продолжительность : 1 ч. 41 м.
Вид битрейта : Постоянный
Битрейт : 192 Кбит/сек
Каналы : 2 канала
ChannelLayout : L R
Частота : 48,0 КГц
Частота кадров : 31,250 кадров/сек (1536 SPF)
Битовая глубина : 16 бит
Метод сжатия : С потерями
Размер потока : 139 Мбайт (0%)
Заголовок : DVO | Новий канал
Язык : Ukrainian
ServiceKind : Complete Main
Default : Нет
Forced : Нет

Аудио #17
Идентификатор : 18
Формат : DTS XLL
Формат/Информация : Digital Theater Systems
Коммерческое название : DTS-HD Master Audio
Идентификатор кодека : A_DTS
Продолжительность : 1 ч. 41 м.
Вид битрейта : Переменный
Битрейт : 4176 Кбит/сек
Каналы : 6 каналов
ChannelLayout : C L R Ls Rs LFE
Частота : 48,0 КГц
Частота кадров : 93,750 кадра/сек (512 SPF)
Битовая глубина : 24 бит
Метод сжатия : Без потерь
Размер потока : 2,96 Гбайт (9%)
Заголовок : Original
Язык : English
Default : Нет
Forced : Нет

Текст #1
Идентификатор : 19
Формат : PGS
Режим смешивания : zlib
Идентификатор кодека : S_HDMV/PGS
Идентификатор кодека/Информация : Picture based subtitle format used on BDs/HD-DVDs
Продолжительность : 1 ч. 30 м.
Битрейт : 23,1 Кбит/сек
ElementCount : 1200
Размер потока : 15,0 Мбайт (0%)
Язык : Russian
Default : Нет
Forced : Нет

Текст #2
Идентификатор : 20
Формат : UTF-8
Идентификатор кодека : S_TEXT/UTF8
Идентификатор кодека/Информация : UTF-8 Plain Text
Продолжительность : 1 ч. 30 м.
Битрейт : 51 бит/сек
ElementCount : 601
Размер потока : 34,6 Кбайт (0%)
Язык : Russian
Default : Нет
Forced : Нет

Текст #3
Идентификатор : 21
Формат : PGS
Режим смешивания : zlib
Идентификатор кодека : S_HDMV/PGS
Идентификатор кодека/Информация : Picture based subtitle format used on BDs/HD-DVDs
Продолжительность : 1 ч. 40 м.
Битрейт : 17,5 Кбит/сек
ElementCount : 1554
Размер потока : 12,6 Мбайт (0%)
Язык : English
Default : Нет
Forced : Нет

Текст #4
Идентификатор : 22
Формат : UTF-8
Идентификатор кодека : S_TEXT/UTF8
Идентификатор кодека/Информация : UTF-8 Plain Text
Продолжительность : 1 ч. 39 м.
Битрейт : 27 бит/сек
ElementCount : 756
Размер потока : 19,9 Кбайт (0%)
Язык : English
Default : Нет
Forced : Нет

Меню
00:00:00.000 : en:Main Title
00:00:50.133 : en:"Your Brother's Soul is Mine"
00:02:39.284 : en:Sonya Blade
00:04:50.415 : en:Johnny Cage
00:07:56.893 : en:The Temple of Light, China
00:12:10.354 : en:Chai Wan Bay, Hong Kong
00:15:35.935 : en:Scorpion and Sub-Zero
00:18:15.219 : en:The Chosen One
00:21:30.372 : en:Arrival on the Island
00:25:00.832 : en:A Taste of Things to Come
00:29:01.030 : en:Kano and the Prince
00:36:24.557 : en:Dumb and Ugly
00:39:41.670 : en:The Tournament
00:42:41.850 : en:Something for Sonya
00:45:38.527 : en:Johnny's Turn
00:50:59.473 : en:Tip from the Princess
00:52:52.252 : en:The Element Which Brings Life
00:56:08.281 : en:Goro's Fury
01:00:15.028 : en:The Fear Inside
01:05:48.653 : en:Johnny vs. Goro
01:09:06.016 : en:The Abduction of Sonya
01:10:51.956 : en:Into Outworld
01:17:09.666 : en:The Black Tower
01:20:50.470 : en:Liu vs. Shang Tsung
01:23:53.987 : en:"Face Your Worst Fear"
01:30:26.629 : en:The Emperor
01:31:34.864 : en:End Credits
Скриншоты
 

Вложения

  • 85,7 KB Просмотры: 1
    Личеров 0
    Сидеров 0
    Файлов 1
    Объем 33,9 GB

Привет!

Мы группа людей которые решили помочь другим в решении их проблем, а так же пользователям с поиском самых свежих и качественных инфопродуктов. За 4 с небольшим месяца мы создали этот форум на который заходят ежедневно тысячи человек и посещаемость постоянно растёт. Мы создали панель лицензирования для защиты PHP скриптов от воровства и SEO панель для мониторинга наших сайтов и выбора верной стратегии их развития. Мы надеемся что то что мы создали пригодится Вам и возможно Вы поможете нам развиваться и совершенствоваться вместе с Вами.

Статистика форума

Темы
412.172
Сообщения
471.201
Пользователи
91.653
Новый пользователь
Markuss

Приложения форума для iOS и Android


У ркн там нет власти ;)
Приватные разговоры
Помощь Пользователи
    Вы не присоединились ни к одной комнате.