За последнюю неделю опубликовано 84 новых материалов.
Инструкция новичку Путеводитель по форуму Прокси для Telegram Показать подсказки , это бомба!

Скачать Смелые люди (1950) DVDRip от New-Team бесплатно через торрент

  • Поучаствуй (в качестве покупателя) в любых пяти совместных покупках (кроме завершённых и "Моментальных") и получи группу "Новичок" навсегда -> ссылка на раздел
  • Получай до 480 рублей за каждого приглашенного пользователя!
    представляем Вам очередное расширение партнерской программы, подробности описаны тут -> ссылка
  • 90% материалов доступно к скачиванию после простой регистрации!
    Если же ты хочешь скачивать материалы без требования оставлять отзывы то получи группу "Новичок", 10 способов повышения описаны тут -> ссылка
  • К сожалению количество битых ссылок растет и мы уже не можем их оперативно восстанавливать поэтому просим помощи у каждого нашего пользователя.
    С сегодняшнего дня, за каждую восстановленную ссылку мы заплатим Вам.
    Подробнее тут -> ссылка
  • Перенесем твои заслуги с другого ресурса!
    Мы понимаем как сложно прокачивать аккаунты на форумах, вроде раскачал аккаунт, а тут появляется ресурс в 100 раз круче но тоже с системой прокачки и снова качать аккаунт...
    Предлагаем вам перенести Ваши заслуги на другом подобном ресурсе к нам.
    Подробности описаны тут -> ссылка
  • Вы можете получать по 2.5% с каждой покупки и продажи на маркете! Подробности в теме Партнёрская программа
Если Вы не хотите скачивать, Вы всегда можетепосмотретьонлайн, просто нажмите кнопку ниже :

Открыть плеер

Torrent_Bot

Торрент-Бот
Бот форума
4 Окт 2016
79
194
20
60f8be8f9152ccb0cf62f31c0948b90c.png
Страна: СССР
Производство: МОСФИЛЬМ

Жанр: боевик, драма, военный
Год выпуска: 1950
Продолжительность: 01:31:48

Перевод: Не требуется
Cубтитры: нет
Оригинальная аудиодорожка: русский

Режиссер: Константин Юдин

В ролях:
Сергей Гурзо (старший), Алексей Грибов, Тамара Чернова, Олег Солюс, Николай Мордвинов, Владимир Дорофеев, Капан Бадыров, Сергей Бобров, Олег Потоцкий, Георгий Гумилевский, Виктор Проклов, Семён Свашенко, Ростислав Плятт, Григорий Шпигель...
Полный список актёров

Описание:
Довоенные годы... Молодой табунщик конного завода Вася Говорухин (Сергей Гурзо) воспитал замечательного коня Буяна, в выдающихся качествах которого сомневается только жестокий тренер Белецкий. Начало войны выявляет истинную сущность Белецкого, который на самом деле был немецким шпионом и готовился передать врагу элитных советских лошадей.
Работники конного завода на оккупированной территории организуют партизанский отряд под руководством секретаря райкома Кожина для действий в тылу врага. Вася Говорухин, которому помогает его верный конь, проявляет храбрость и находчивость, разоблачая шпиона и спасая лучших лошадей от вывоза в Германию…
Фильм снят в редком для советского кино жанре вестерна. Лихо скачет старый тренер Воронов, заворачивая табун, которому грозит падение в пропасть... Говорухин отчаянно борется с негодяем Белецким, сбежавшим из-под охраны... Освобождая Буяна из немецкого "плена", Вася демонстрирует чудеса джигитовки, уходя и отстреливаясь от погони... Удивительно сообразителен Буян: он ложится на землю, чтобы тяжело раненый хозяин мог взобраться на его спину... И наконец, волнующая финальная сцена: Говорухин на верном Буяне догоняет немецкий эшелон и отцепляет от него два вагона с советскими девушками, угоняемыми в неволю...
В пятидесятые годы фильм был рекордсменом кинопроката, мальчишки смотрели его по многу раз, во дворах играли в Васю Говорухина...


e3a7b632b932e468e5a688fa1ab8841a.gif1c1358a4df883bbef5a5ff448aa321f0.gif420dab827dd887beadf31d5b383f8df7.png445ad86b62272b4a1bc399eb8424029c.png


Источник: DVD5 R5
Качество видео: DVDRip
Формат видео: AVI

Видео: 688x512 (4:3), 25 fps, XviD ~ 1496 kbps avg, 0.170 bit/pixel
Аудио: 48 kHz, Dolby Digital AC3 2.0, 192 kbps

Раздача от: 4a710a99de2a7e38c029a554d812506c.png99e44994b7b9acd8bde877cb8ad2f429.gif
MediaInfo
Общее
Полное имя : Smelye.lyudi.1950.DVDRip_[New-team]_by_AVP_Studio.avi
Формат : AVI
Формат/Информация : Audio Video Interleave
Размер файла : 1,09 Гбайт
Продолжительность : 1 ч. 31 м.
Общий поток : 1697 Кбит/сек
Программа кодирования : VirtualDubMod 1.5.10.3 | www.virtualdub-fr.org || (build 2550/release)
Библиотека кодирования : VirtualDubMod build 2550/release

Видео
Идентификатор : 0
Формат : MPEG-4 Visual
Профиль формата : Advanced [email protected]
Параметр BVOP формата : 1
Параметр QPel формата : Нет
Параметр GMC формата : Без точки перехода
Параметр матрицы формата : Выборочная
Идентификатор кодека : XVID
Идентификатор кодека/Подсказка : XviD
Продолжительность : 1 ч. 31 м.
Битрейт : 1496 Кбит/сек
Ширина : 688 пикселей
Высота : 512 пикселей
Соотношение сторон : 4:3
Частота кадров : 25,000 кадров/сек
Цветовое пространство : YUV
Субдискретизация насыщенности : 4:2:0
Битовая глубина : 8 бит
Тип развёртки : Прогрессивная
Метод сжатия : С потерями
Бит/(Пиксели*Кадры) : 0.170
Размер потока : 982 Мбайт (88%)
Библиотека кодирования : XviD 73

Аудио
Идентификатор : 1
Формат : AC-3
Формат/Информация : Audio Coding 3
Расширение режима : CM (complete main)
Параметр Endianness формата : Big
Идентификатор кодека : 2000
Продолжительность : 1 ч. 31 м.
Вид битрейта : Постоянный
Битрейт : 192 Кбит/сек
Каналы : 2 канала
Расположение каналов : Front: L R
Частота : 48,0 КГц
Метод сжатия : С потерями
Размер потока : 126 Мбайт (11%)
Выравнивание : Разделение по промежуткам
Продолжительность промежутка : 40 мс. (1,00 видеокадр)
Время предзагрузки промежутка : 500 мс
Скриншоты
0640e17d6cf253b16dc07a419ecdff42.png4f7a5838b210a18ec75ca6ff1836e038.pnge1c08b33a718c528dff013bc70ea6e87.pngc0b7a2f65d826279070ed0fab814739b.png
 

Вложения

  • 12,3 KB Просмотры: 1
    Личеров 0
    Сидеров 0
    Файлов 1
    Объем 1,1 GB

Привет!

Мы группа людей которые решили помочь другим в решении их проблем, а так же пользователям с поиском самых свежих и качественных инфопродуктов. За 4 с небольшим месяца мы создали этот форум на который заходят ежедневно тысячи человек и посещаемость постоянно растёт. Мы создали панель лицензирования для защиты PHP скриптов от воровства и SEO панель для мониторинга наших сайтов и выбора верной стратегии их развития. Мы надеемся что то что мы создали пригодится Вам и возможно Вы поможете нам развиваться и совершенствоваться вместе с Вами.

Статистика форума

Темы
414.370
Сообщения
475.396
Пользователи
96.561
Новый пользователь
starushka

Приложения форума для iOS и Android


У ркн там нет власти ;)
Приватные разговоры
Помощь Пользователи
    Вы не присоединились ни к одной комнате.