За последнюю неделю опубликовано 120 новых материалов.
Инструкция новичку Путеводитель по форуму Прокси для Telegram Показать подсказки , это бомба!

Скачать Слизняк / Slither (2006) BDRip 720p | P бесплатно через торрент

  • Поучаствуй (в качестве покупателя) в любых пяти совместных покупках (кроме завершённых и "Моментальных") и получи группу "Новичок" навсегда -> ссылка на раздел
  • Получай до 480 рублей за каждого приглашенного пользователя!
    представляем Вам очередное расширение партнерской программы, подробности описаны тут -> ссылка
  • 90% материалов доступно к скачиванию после простой регистрации!
    Если же ты хочешь скачивать материалы без требования оставлять отзывы то получи группу "Новичок", 10 способов повышения описаны тут -> ссылка
  • К сожалению количество битых ссылок растет и мы уже не можем их оперативно восстанавливать поэтому просим помощи у каждого нашего пользователя.
    С сегодняшнего дня, за каждую восстановленную ссылку мы заплатим Вам.
    Подробнее тут -> ссылка
  • Перенесем твои заслуги с другого ресурса!
    Мы понимаем как сложно прокачивать аккаунты на форумах, вроде раскачал аккаунт, а тут появляется ресурс в 100 раз круче но тоже с системой прокачки и снова качать аккаунт...
    Предлагаем вам перенести Ваши заслуги на другом подобном ресурсе к нам.
    Подробности описаны тут -> ссылка
  • Вы можете получать по 2.5% с каждой покупки и продажи на маркете! Подробности в теме Партнёрская программа
Если Вы не хотите скачивать, Вы всегда можетепосмотретьонлайн, просто нажмите кнопку ниже :

Открыть плеер

Torrent_Bot

Торрент-Бот
Бот форума
4 Окт 2016
82
186
20

Слизняк
Slither
«Slug it out»


Страна: Канада, США
Жанр: ужасы, фантастика, комедия
Год выпуска: 2006
Продолжительность: 01:35:36
Перевод: Профессиональный (многоголосый, закадровый), Оригинальный
Субтитры: английские, английские (SDH).


Режиссер: Джеймс Ганн / James Gunn


В ролях: Нэйтан Филлион(Bill Pardy), Элизабет Бэнкс(Starla Grant), Майкл Рукер(Grant Grant), Грегг Генри(Jack MacReady), Дон Томпсон(Wally), Ксанта Рэдли(Uptight Mom), Таня Солнье(Kylie Strutemyer), Дастин Миллиган(Drawing Boy), Хэйг Сазерленд(Trevor), Дженнифер Коппинг(Margaret), Зак Людвиг(Gina Kid), Кэтрин Киркпатрик(Karaoke Woman)


Описание: Грант Грант, житель маленького городка Уилси, обнаруживает в лесу упавший метеорит. Из этого космического тела исторгается некая субстанция, которая тут же поселяется в груди Гранта. После этого с ним начинают происходить странные метаморфозы. Он постоянно испытывает сильный голод, а его тело подвергается трансформациям. Когда же Грант осознает свое новое предназначение, он бросается превращать других жителей городка в таких же, как и он, ненасытных зомби. Первым делом Грант хочет проделать это с собственной женой Старлой, однако местный шериф Билл Парди делает все, чтобы защитить ее и весь город от космической чумы...



MPAA: R - Лицам до 17 лет обязательно присутствие взрослого


Семпл


Качество: BDRip
Контейнер: MKV

Видео: AVC, 1280x720 (16:9), 6655 kbps, 23,976 fps, 0,301 bpp
Аудио №1: русский / AC3 / 5.1 / 48 kHz / 448 kbps
Аудио №2: английский / AC3 / 5.1 / 48 kHz / 640 kbps
Навигация по главам: есть


Media Info
*************************************************
x264 [info]: frame I:1178 Avg QP:14.14 size:122405
x264 [info]: frame P:27286 Avg QP:17.07 size: 57069
x264 [info]: frame B:109069 Avg QP:18.85 size: 28170
*************************************************
Format : Matroska
Format version : Version 2
File size : 5.17 GiB
Duration : 1h 35mn
Overall bit rate : 7 748 Kbps
Movie name : = Слизняк / Slither (2006) BDRip 720p by SC Kosmos =
Encoded date : UTC 2016-04-08 07:56:36
Writing application : mkvmerge v5.8.0 ('No Sleep / Pillow') built on Sep 2 2012 15:37:04
Writing library : libebml v1.2.3 + libmatroska v1.3.0
Attachment : Yes

Video
ID : 1
Format : AVC
Format/Info : Advanced Video Codec
Format profile : [email protected]
Format settings, CABAC : Yes
Format settings, ReFrames : 9 frames
Codec ID : V_MPEG4/ISO/AVC
Duration : 1h 35mn
Bit rate : 6 655 Kbps
Width : 1 280 pixels
Height : 720 pixels
Display aspect ratio : 16:9
Frame rate : 23.976 fps
Color space : YUV
Chroma subsampling : 4:2:0
Bit depth : 8 bits
Scan type : Progressive
Bits/(Pixel*Frame) : 0.301
Stream size : 4.34 GiB (84%)
Title : Слизняк / Slither (2006) BDRip 720p by SC Kosmos
Writing library : x264 core 146 r2538 121396c
Encoding settings : cabac=1 / ref=9 / deblock=1:-1:-1 / analyse=0x3:0x113 / me=umh / subme=11 / psy=1 / psy_rd=1.00:0.00 / mixed_ref=1 / me_range=32 / chroma_me=1 / trellis=2 / 8x8dct=1 / cqm=0 / deadzone=21,11 / fast_pskip=0 / chroma_qp_offset=-2 / threads=12 / lookahead_threads=3 / sliced_threads=0 / nr=0 / decimate=0 / interlaced=0 / bluray_compat=0 / constrained_intra=0 / bframes=10 / b_pyramid=2 / b_adapt=2 / b_bias=0 / direct=3 / weightb=1 / open_gop=0 / weightp=2 / keyint=240 / keyint_min=23 / scenecut=40 / intra_refresh=0 / rc=2pass / mbtree=0 / bitrate=6655 / ratetol=1.0 / qcomp=0.60 / qpmin=0 / qpmax=69 / qpstep=4 / cplxblur=20.0 / qblur=0.5 / ip_ratio=1.40 / pb_ratio=1.30 / aq=1:1.00 / zones=129420,137532,b=0.25
Language : English
Default : Yes
Forced : No

Audio #1
ID : 2
Format : AC-3
Format/Info : Audio Coding 3
Mode extension : CM (complete main)
Codec ID : A_AC3
Duration : 1h 35mn
Bit rate mode : Constant
Bit rate : 448 Kbps
Channel(s) : 6 channels
Channel positions : Front: L C R, Side: L R, LFE
Sampling rate : 48.0 KHz
Bit depth : 16 bits
Compression mode : Lossy
Stream size : 306 MiB (6%)
Title : MVO
Language : Russian
Default : Yes
Forced : No

Audio #2
ID : 3
Format : AC-3
Format/Info : Audio Coding 3
Mode extension : CM (complete main)
Codec ID : A_AC3
Duration : 1h 35mn
Bit rate mode : Constant
Bit rate : 640 Kbps
Channel(s) : 6 channels
Channel positions : Front: L C R, Side: L R, LFE
Sampling rate : 48.0 KHz
Bit depth : 16 bits
Compression mode : Lossy
Stream size : 438 MiB (8%)
Language : English
Default : No
Forced : No

Text #1
ID : 4
Format : UTF-8
Codec ID : S_TEXT/UTF8
Codec ID/Info : UTF-8 Plain Text
Language : English
Default : Yes
Forced : No

Text #2
ID : 5
Format : UTF-8
Codec ID : S_TEXT/UTF8
Codec ID/Info : UTF-8 Plain Text
Title : SDH
Language : English
Default : No
Forced : No

Menu
00:00:00.000 : en:chapter 1
00:03:30.001 : en:chapter 2
00:07:13.350 : en:chapter 3
00:15:11.702 : en:chapter 4
00:19:31.629 : en:chapter 5
00:25:22.104 : en:chapter 6
00:28:40.552 : en:chapter 7
00:33:44.272 : en:chapter 8
00:38:55.458 : en:chapter 9
00:42:10.862 : en:chapter 10
00:49:19.790 : en:chapter 11
00:54:46.909 : en:chapter 12
00:58:48.150 : en:chapter 13
01:03:46.406 : en:chapter 14
01:07:44.018 : en:chapter 15
01:10:39.944 : en:chapter 16
01:16:55.194 : en:chapter 17
01:19:37.606 : en:chapter 18
01:22:16.140 : en:chapter 19
01:26:37.609 : en:chapter 20



Скриншоты

 

Вложения

  • 26,8 KB Просмотры: 1
    Личеров 0
    Сидеров 0
    Файлов 1
    Объем 5,2 GB

Привет!

Мы группа людей которые решили помочь другим в решении их проблем, а так же пользователям с поиском самых свежих и качественных инфопродуктов. За 4 с небольшим месяца мы создали этот форум на который заходят ежедневно тысячи человек и посещаемость постоянно растёт. Мы создали панель лицензирования для защиты PHP скриптов от воровства и SEO панель для мониторинга наших сайтов и выбора верной стратегии их развития. Мы надеемся что то что мы создали пригодится Вам и возможно Вы поможете нам развиваться и совершенствоваться вместе с Вами.

Статистика форума

Темы
412.263
Сообщения
471.347
Пользователи
91.786
Новый пользователь
Куркума

Приложения форума для iOS и Android


У ркн там нет власти ;)
Приватные разговоры
Помощь Пользователи
    Вы не присоединились ни к одной комнате.