За последнюю неделю опубликовано 57 новых материалов.
Инструкция новичку Путеводитель по форуму Прокси для Telegram Показать подсказки , это бомба!

Скачать Славные парни / Goodfellas (1990) HDRip | КПК | Р2 бесплатно через торрент

  • Поучаствуй (в качестве покупателя) в любых пяти совместных покупках (кроме завершённых и "Моментальных") и получи группу "Новичок" навсегда -> ссылка на раздел
  • Получай до 480 рублей за каждого приглашенного пользователя!
    представляем Вам очередное расширение партнерской программы, подробности описаны тут -> ссылка
  • 90% материалов доступно к скачиванию после простой регистрации!
    Если же ты хочешь скачивать материалы без требования оставлять отзывы то получи группу "Новичок", 10 способов повышения описаны тут -> ссылка
  • К сожалению количество битых ссылок растет и мы уже не можем их оперативно восстанавливать поэтому просим помощи у каждого нашего пользователя.
    С сегодняшнего дня, за каждую восстановленную ссылку мы заплатим Вам.
    Подробнее тут -> ссылка
  • Перенесем твои заслуги с другого ресурса!
    Мы понимаем как сложно прокачивать аккаунты на форумах, вроде раскачал аккаунт, а тут появляется ресурс в 100 раз круче но тоже с системой прокачки и снова качать аккаунт...
    Предлагаем вам перенести Ваши заслуги на другом подобном ресурсе к нам.
    Подробности описаны тут -> ссылка
  • Вы можете получать по 2.5% с каждой покупки и продажи на маркете! Подробности в теме Партнёрская программа
Если Вы не хотите скачивать, Вы всегда можетепосмотретьонлайн, просто нажмите кнопку ниже :

Открыть плеер

Torrent_Bot

Торрент-Бот
Бот форума
4 Окт 2016
92
163
20



Информация о фильме
Название: Славные парни
Оригинальное название: Goodfellas
Год выхода: 1990
Жанр: триллер, драма, криминал
Режиссер: Мартин Скорсезе
В ролях: Роберт Де Ниро, Рэй Лиотта, Джо Пеши, Лоррейн Бракко, Пол Сорвино, Фрэнк Сиверо, Тони Дарроу, Майк Старр, Фрэнк Винсент, Чак Лоу

О фильме:
Криминальная драма «Славные парни» снята кинорежиссером Мартином Скорсезе по роману американского писателя Николаса Пиледжи «Умник».
Главный герой фильма – парень по имени Генри Хилл. Он вырос в одном из самых бледных районов Нью-Йорка – Бруклине, в окружении гангстеров, и поэтому уже тогда мечтал стать одним из них. Криминальный путь Генри начинается с того, что он сначала начинает выполнять поручения одного из местных бандитов. В скором времени на него обращает внимание очень крупный криминальный авторитет Пол Сисеро, который сводит Генри с двумя известными бандитами. Они начинают работать вместе, и, наконец, заветная мечта героя сбывается – он становится самым настоящим гангстером. Но вскоре ему и его друзьям предстоит столкнуться с обратной стороной криминальной жизни...



Рейтинг MPAA: R - лицам до 17 лет обязательно присутствие взрослого

Страна: США
Студия: Warner Bros.
Продолжительность: 02:25:27
Перевод: Профессиональный (двухголосый, закадровый) | Кубик в Кубе

Примечание :в переводе присутствует ненормативная лексика!

Файл
Формат: MP4
Качество: HDRip (исх. BDRip 720p) *
Видео: AVC, 640x360 (16:9), 23.976 fps, 650 kb/s
Аудио: AAC LC SBR, 48.0 KHz, 2 ch, 64 kb/s **
Субтитры: Нет

* за исходник видео спасибо mister.hats
** за исходный звук спасибо MrRavage

MediaInfo
General
Complete name : Goodfellas.1990.DVO.HDRip.mp4
Format : MPEG-4
Format profile : Base Media
Codec ID : isom (isom)
File size : 745 MiB
Duration : 2 h 25 min
Overall bit rate mode : Variable
Overall bit rate : 716 kb/s
Encoded date : UTC 2020-07-04 14:41:50
Tagged date : UTC 2020-07-04 14:41:50
Writing application : Yamb 2.1.0.0 [http://yamb.unite-video.com]

Video
ID : 1
Format : AVC
Format/Info : Advanced Video Codec
Format profile : [email protected]
Format settings : CABAC / 14 Ref Frames
Format settings, CABAC : Yes
Format settings, RefFrames : 14 frames
Codec ID : avc1
Codec ID/Info : Advanced Video Coding
Duration : 2 h 25 min
Bit rate : 650 kb/s
Maximum bit rate : 2 133 kb/s
Width : 640 pixels
Height : 360 pixels
Display aspect ratio : 16:9
Frame rate mode : Constant
Frame rate : 23.976 (24000/1001) FPS
Color space : YUV
Chroma subsampling : 4:2:0
Bit depth : 8 bits
Scan type : Progressive
Bits/(Pixel*Frame) : 0.118
Stream size : 676 MiB (91%)
Title : Goodfellas
Writing library : x264 core 152 r2851 ba24899
Encoding settings : cabac=1 / ref=14 / deblock=1:-2:-1 / analyse=0x3:0x113 / me=umh / subme=10 / psy=1 / psy_rd=0.90:0.10 / mixed_ref=1 / me_range=32 / chroma_me=1 / trellis=2 / 8x8dct=1 / cqm=0 / deadzone=21,11 / fast_pskip=0 / chroma_qp_offset=-3 / threads=6 / lookahead_threads=1 / sliced_threads=0 / nr=500 / decimate=0 / interlaced=0 / bluray_compat=0 / constrained_intra=0 / bframes=16 / b_pyramid=2 / b_adapt=2 / b_bias=0 / direct=3 / weightb=1 / open_gop=0 / weightp=2 / keyint=250 / keyint_min=23 / scenecut=40 / intra_refresh=0 / rc=2pass / mbtree=0 / bitrate=650 / ratetol=1.0 / qcomp=0.70 / qpmin=0 / qpmax=69 / qpstep=4 / cplxblur=20.0 / qblur=0.5 / ip_ratio=1.25 / pb_ratio=1.30 / aq=2:0.80
Language : English
Encoded date : UTC 2020-06-30 20:05:02
Tagged date : UTC 2020-07-04 14:44:30
Codec configuration box : avcC

Audio
ID : 2
Format : AAC LC SBR
Format/Info : Advanced Audio Codec Low Complexity with Spectral Band Replication
Commercial name : HE-AAC
Format settings : Explicit
Codec ID : mp4a-40-2
Duration : 2 h 25 min
Bit rate mode : Variable
Bit rate : 64.0 kb/s
Maximum bit rate : 73.0 kb/s
Channel(s) : 2 channels
Channel layout : L R
Sampling rate : 48.0 kHz
Frame rate : 23.438 FPS (2048 SPF)
Compression mode : Lossy
Stream size : 66.6 MiB (9%)
Title : DVO - KvK
Language : Russian
Encoded date : UTC 2020-07-04 14:44:07
Tagged date : UTC 2020-07-04 14:44:30
Скриншоты
 

Вложения

  • 15,5 KB Просмотры: 0
    Личеров 0
    Сидеров 0
    Файлов 1
    Объем 745,2 MB

Привет!

Мы группа людей которые решили помочь другим в решении их проблем, а так же пользователям с поиском самых свежих и качественных инфопродуктов. За 4 с небольшим месяца мы создали этот форум на который заходят ежедневно тысячи человек и посещаемость постоянно растёт. Мы создали панель лицензирования для защиты PHP скриптов от воровства и SEO панель для мониторинга наших сайтов и выбора верной стратегии их развития. Мы надеемся что то что мы создали пригодится Вам и возможно Вы поможете нам развиваться и совершенствоваться вместе с Вами.

Статистика форума

Темы
406.698
Сообщения
465.162
Пользователи
84.790
Новый пользователь
wesennijh

Приложения форума для iOS и Android


У ркн там нет власти ;)
Приватные разговоры
Помощь Пользователи
    Вы не присоединились ни к одной комнате.