За последнюю неделю опубликовано 57 новых материалов.
Инструкция новичку Путеводитель по форуму Прокси для Telegram Показать подсказки , это бомба!

Скачать Славные парни / Goodfellas (1990) BDRip 720p | P2, A | Remastered бесплатно через торрент

  • Поучаствуй (в качестве покупателя) в любых пяти совместных покупках (кроме завершённых и "Моментальных") и получи группу "Новичок" навсегда -> ссылка на раздел
  • Получай до 480 рублей за каждого приглашенного пользователя!
    представляем Вам очередное расширение партнерской программы, подробности описаны тут -> ссылка
  • 90% материалов доступно к скачиванию после простой регистрации!
    Если же ты хочешь скачивать материалы без требования оставлять отзывы то получи группу "Новичок", 10 способов повышения описаны тут -> ссылка
  • К сожалению количество битых ссылок растет и мы уже не можем их оперативно восстанавливать поэтому просим помощи у каждого нашего пользователя.
    С сегодняшнего дня, за каждую восстановленную ссылку мы заплатим Вам.
    Подробнее тут -> ссылка
  • Перенесем твои заслуги с другого ресурса!
    Мы понимаем как сложно прокачивать аккаунты на форумах, вроде раскачал аккаунт, а тут появляется ресурс в 100 раз круче но тоже с системой прокачки и снова качать аккаунт...
    Предлагаем вам перенести Ваши заслуги на другом подобном ресурсе к нам.
    Подробности описаны тут -> ссылка
  • Вы можете получать по 2.5% с каждой покупки и продажи на маркете! Подробности в теме Партнёрская программа
Если Вы не хотите скачивать, Вы всегда можетепосмотретьонлайн, просто нажмите кнопку ниже :

Открыть плеер

Torrent_Bot

Торрент-Бот
Бот форума
4 Окт 2016
92
163
20



Информация о фильме
Название: Славные парни
Оригинальное название: Goodfellas
Год выхода: 1990
Жанр: триллер, драма, криминал
Режиссер: Мартин Скорсезе
В ролях: Роберт Де Ниро, Рэй Лиотта, Джо Пеши, Лоррейн Бракко, Пол Сорвино, Фрэнк Сиверо, Тони Дарроу, Майк Старр, Фрэнк Винсент, Чак Лоу

О фильме: Криминальная драма «Славные парни» снята кинорежиссером Мартином Скорсезе по роману американского писателя Николаса Пиледжи «Умник».

Главный герой фильма – парень по имени Генри Хилл. Он вырос в одном из самых бледных районов Нью-Йорка – Бруклине, в окружении гангстеров, и поэтому уже тогда мечтал стать одним из них. Криминальный путь Генри начинается с того, что он сначала начинает выполнять поручения одного из местных бандитов. В скором времени на него обращает внимание очень крупный криминальный авторитет Пол Сисеро, который сводит Генри с двумя известными бандитами. Они начинают работать вместе, и, наконец, заветная мечта героя сбывается – он становится самым настоящим гангстером. Но вскоре ему и его друзьям предстоит столкнуться с обратной стороной криминальной жизни...



Страна: США
Студия: Warner Bros. Pictures Co.
Продолжительность: 02:25:27
Перевод: Профессиональный (двухголосый, закадровый), Авторский (одноголосый, закадровый)

Файл
Качество: BDRip 720p | Remastered | k.e.n & MegaPeer
Формат: Matroska
Видео: 1280x720 at 23.976 fps, x264, ~5900 kbps avg
Аудио#1: Russian: 48 kHz, AC3, 3/2 (L,C,R,l,r) + LFE ch, ~448 kbps avg |Двухголосый закадровый, Кубик в Кубе|
Аудио#2: Russian: 48 kHz, AC3, 3/2 (L,C,R,l,r) + LFE ch, ~448 kbps avg |Авторский, Д.Пучков|
Аудио#3: English: 48 kHz, AC3, 3/2 (L,C,R,l,r) + LFE ch, ~448 kbps avg
Субтитры: Russian (Full), English (Full, SDH)

***Сохранены и подписаны оригинальные главы как на Blu-ray
***За перевод Д.Пучкова спасибо: TBiL. Работа со звуком: karasidi12
***Внимание! Присутствует ненормативная лексика!

MediaInfo
General
Unique ID : 221198722294781243457127300720865496200 (0xA6695304D9E0355C99508CF8073ACC88)
Complete name : Goodfellas.1990.BDRip.720p.Remastered.mkv
Format : Matroska
Format version : Version 2
File size : 7.36 GiB
Duration : 2 h 25 min
Overall bit rate : 7 243 kb/s
Movie name : Славные парни / Goodfellas (1990)
Encoded date : UTC 2020-09-02 05:45:10
Writing application : mkvmerge v5.8.0 ('No Sleep / Pillow') built on Sep 2 2012 15:37:04
Writing library : libebml v1.2.3 + libmatroska v1.3.0

Video
ID : 1
Format : AVC
Format/Info : Advanced Video Codec
Format profile : [email protected]
Format settings : CABAC / 9 Ref Frames
Format settings, CABAC : Yes
Format settings, Reference fra : 9 frames
Codec ID : V_MPEG4/ISO/AVC
Duration : 2 h 25 min
Bit rate : 5 903 kb/s
Width : 1 280 pixels
Height : 720 pixels
Display aspect ratio : 16:9
Frame rate mode : Constant
Frame rate : 23.976 (24000/1001) FPS
Color space : YUV
Chroma subsampling : 4:2:0
Bit depth : 8 bits
Scan type : Progressive
Bits/(Pixel*Frame) : 0.267
Stream size : 5.85 GiB (79%)
Writing library : x264 core 146 r2538 121396c
Encoding settings : cabac=1 / ref=9 / deblock=1:-3:-3 / analyse=0x3:0x133 / me=umh / subme=11 / psy=1 / psy_rd=1.00:0.00 / mixed_ref=1 / me_range=32 / chroma_me=1 / trellis=2 / 8x8dct=1 / cqm=0 / deadzone=21,11 / fast_pskip=0 / chroma_qp_offset=-2 / threads=12 / lookahead_threads=3 / sliced_threads=0 / nr=0 / decimate=0 / interlaced=0 / bluray_compat=0 / constrained_intra=0 / bframes=10 / b_pyramid=2 / b_adapt=2 / b_bias=0 / direct=3 / weightb=1 / open_gop=0 / weightp=2 / keyint=240 / keyint_min=23 / scenecut=40 / intra_refresh=0 / rc=2pass / mbtree=0 / bitrate=5903 / ratetol=1.0 / qcomp=0.60 / qpmin=0 / qpmax=69 / qpstep=4 / cplxblur=20.0 / qblur=0.5 / ip_ratio=1.40 / pb_ratio=1.30 / aq=1:0.90
Language : English
Default : Yes
Forced : No

Audio #1
ID : 2
Format : AC-3
Format/Info : Audio Coding 3
Commercial name : Dolby Digital
Codec ID : A_AC3
Duration : 2 h 25 min
Bit rate mode : Constant
Bit rate : 448 kb/s
Channel(s) : 6 channels
Channel layout : L R C LFE Ls Rs
Sampling rate : 48.0 kHz
Frame rate : 31.250 FPS (1536 SPF)
Bit depth : 16 bits
Compression mode : Lossy
Stream size : 466 MiB (6%)
Title : Кубик в Кубе
Language : Russian
Service kind : Complete Main
Default : Yes
Forced : No

Audio #2
ID : 3
Format : AC-3
Format/Info : Audio Coding 3
Commercial name : Dolby Digital
Codec ID : A_AC3
Duration : 2 h 25 min
Bit rate mode : Constant
Bit rate : 448 kb/s
Channel(s) : 6 channels
Channel layout : L R C LFE Ls Rs
Sampling rate : 48.0 kHz
Frame rate : 31.250 FPS (1536 SPF)
Bit depth : 16 bits
Compression mode : Lossy
Stream size : 466 MiB (6%)
Title : Д.Пучков
Language : Russian
Service kind : Complete Main
Default : No
Forced : No

Audio #3
ID : 4
Format : AC-3
Format/Info : Audio Coding 3
Commercial name : Dolby Digital
Codec ID : A_AC3
Duration : 2 h 25 min
Bit rate mode : Constant
Bit rate : 448 kb/s
Channel(s) : 6 channels
Channel layout : L R C LFE Ls Rs
Sampling rate : 48.0 kHz
Frame rate : 31.250 FPS (1536 SPF)
Bit depth : 16 bits
Compression mode : Lossy
Stream size : 466 MiB (6%)
Language : English
Service kind : Complete Main
Default : No
Forced : No

Text #1
ID : 5
Format : UTF-8
Codec ID : S_TEXT/UTF8
Codec ID/Info : UTF-8 Plain Text
Title : Full
Language : Russian
Default : No
Forced : No

Text #2
ID : 6
Format : UTF-8
Codec ID : S_TEXT/UTF8
Codec ID/Info : UTF-8 Plain Text
Title : Full
Language : Russian
Default : No
Forced : No

Text #3
ID : 7
Format : UTF-8
Codec ID : S_TEXT/UTF8
Codec ID/Info : UTF-8 Plain Text
Title : Full
Language : Russian
Default : No
Forced : No

Text #4
ID : 8
Format : UTF-8
Codec ID : S_TEXT/UTF8
Codec ID/Info : UTF-8 Plain Text
Title : Full
Language : English
Default : No
Forced : No

Text #5
ID : 9
Format : UTF-8
Codec ID : S_TEXT/UTF8
Codec ID/Info : UTF-8 Plain Text
Title : SDH
Language : English
Default : No
Forced : No

Menu
00:00:00.000 : en:prologue and Credits
00:02:42.912 : en:The Cab Stand
00:05:49.432 : en:No More Letters
00:07:36.539 : en:paulie's Business
00:09:08.464 : en:Like a Gangster
00:10:48.731 : en:Jimmy the Gent
00:13:28.557 : en:Henry's First Pinch
00:15:01.817 : en:The Idlewild Connection
00:16:38.580 : en:Cast of Characters
00:19:43.098 : en:Funny Guy
00:23:46.341 : en:The Bamboo Lounge
00:28:39.634 : en:First Date, First Fight
00:31:32.640 : en:The Copacabana
00:34:36.157 : en:Airport Heist
00:35:43.391 : en:Animal Attraction
00:37:21.155 : en:Morrie and Bruce...
00:41:27.568 : en:The Wedding
00:44:26.413 : en:The Wives
00:48:56.016 : en:Togetherness
00:52:04.371 : en:Billy Bats
00:57:07.340 : en:Mrs. Devito's House
01:01:10.249 : en:Friday's
01:03:46.239 : en:Digging Expedition
01:06:23.229 : en:Janice
01:07:43.476 : en:Spider
01:12:32.264 : en:At Gunpoint
01:15:43.288 : en:Trip to Tampa
01:18:39.297 : en:Trip to Jail
01:20:02.714 : en:Life in Stir
01:23:05.397 : en:On Our Own
01:25:37.715 : en:Homecoming; Paulie's
01:28:14.372 : en:New Business, New Home
01:30:29.841 : en:The Lufthansa Heist
01:33:20.845 : en:payoffs
01:37:52.449 : en:Covering Stacks' Tracks
01:40:01.745 : en:Tommy's Good Fortune
01:42:51.415 : en:Morrie's Bad Fortune
01:46:34.137 : en:Bodies All Over
01:49:14.297 : en:The Day Tommie Is Made
01:53:21.544 : en:Sunday, May 11Th 1980
02:03:56.178 : en:Aftermath: The Bad Time
02:07:18.714 : en:Henry and Paulie
02:09:29.678 : en:Karen and Jimmy
02:12:00.829 : en:Smiling Murderers
02:15:02.010 : en:Leaving the Life
02:18:47.402 : en:A Schnook; Coda
02:20:32.841 : en:End Credits
Скриншоты
 

Вложения

  • 19,3 KB Просмотры: 0
    Личеров 0
    Сидеров 0
    Файлов 1
    Объем 7,4 GB

Привет!

Мы группа людей которые решили помочь другим в решении их проблем, а так же пользователям с поиском самых свежих и качественных инфопродуктов. За 4 с небольшим месяца мы создали этот форум на который заходят ежедневно тысячи человек и посещаемость постоянно растёт. Мы создали панель лицензирования для защиты PHP скриптов от воровства и SEO панель для мониторинга наших сайтов и выбора верной стратегии их развития. Мы надеемся что то что мы создали пригодится Вам и возможно Вы поможете нам развиваться и совершенствоваться вместе с Вами.

Статистика форума

Темы
406.698
Сообщения
465.162
Пользователи
84.789
Новый пользователь
Setis

Приложения форума для iOS и Android


У ркн там нет власти ;)
Приватные разговоры
Помощь Пользователи
    Вы не присоединились ни к одной комнате.