За последнюю неделю опубликовано 26 новых материалов.
Инструкция новичку Путеводитель по форуму Прокси для Telegram Показать подсказки , это бомба!

Скачать Сказочник / Storytelling (2001) DVDRip | A бесплатно через торрент

  • Поучаствуй (в качестве покупателя) в любых пяти совместных покупках (кроме завершённых и "Моментальных") и получи группу "Новичок" навсегда -> ссылка на раздел
  • Получай до 480 рублей за каждого приглашенного пользователя!
    представляем Вам очередное расширение партнерской программы, подробности описаны тут -> ссылка
  • 90% материалов доступно к скачиванию после простой регистрации!
    Если же ты хочешь скачивать материалы без требования оставлять отзывы то получи группу "Новичок", 10 способов повышения описаны тут -> ссылка
  • К сожалению количество битых ссылок растет и мы уже не можем их оперативно восстанавливать поэтому просим помощи у каждого нашего пользователя.
    С сегодняшнего дня, за каждую восстановленную ссылку мы заплатим Вам.
    Подробнее тут -> ссылка
  • Перенесем твои заслуги с другого ресурса!
    Мы понимаем как сложно прокачивать аккаунты на форумах, вроде раскачал аккаунт, а тут появляется ресурс в 100 раз круче но тоже с системой прокачки и снова качать аккаунт...
    Предлагаем вам перенести Ваши заслуги на другом подобном ресурсе к нам.
    Подробности описаны тут -> ссылка
  • Вы можете получать по 2.5% с каждой покупки и продажи на маркете! Подробности в теме Партнёрская программа
Если Вы не хотите скачивать, Вы всегда можетепосмотретьонлайн, просто нажмите кнопку ниже :

Открыть плеер

Torrent_Bot

Торрент-Бот
Бот форума
4 Окт 2016
81
189
20



Информация о фильме
Название: Сказочник
Оригинальное название: Storytelling
Год выхода: 2001
Жанр: драма, комедия
Режиссер: Тодд Солондз
В ролях: Джон Гудман, Сэльма Блэр, Роберт Уиздом, Пол Джаматти, Лео Фицпатрик, Мария Тэйер, Анджела Геталс, Девора Роуз, Нэнси Энн Риддер, Стивен Розен

О фильме:
Хотя жизнь в Америке совсем не похожа на сказку, там каждый день с людьми происходят события, способные резко изменить их судьбу, тем более, если это — неудачники, неуклюже пытающиеся сделать творческую карьеру. Как начинающей писательнице привлечь внимание знатоков к своим сочинениям? Конечно, переспать с обладателем Пулитцеровской премии, ведущим курсы в третьеразрядном колледже и со злости совращающим наивных студенток! А что делать незадачливому документалисту, мечтающему снять революционный фильм о подростках? Разумеется, рассказать о туповатом школьнике, который хочет стать звездой телевидения! Эти творцы прокладывают себе путь к славе самыми экстремальными методами, надеясь, что шокированная публика оценит их гениальные труды!

Третья картина замечательного режиссера Тодда Солондза. Премьера ленты "Сказочник" состоялась в Канне в 2001 году, она была затем включена в программы кинофестивалей в Нью-Йорке и Сандэнсе. Газета "New York Times" назвала ее одним из "десяти лучших фильмов года". Cняв «Счастье», он сам на себя навесил уйму дешевых — конвертируемых — ярлыков, но отстранился от них в следующем фильме «Сказочник», самом концептуальном в его карьере. В нем Солондз выступил не только в своей привычной роли социального критика, но и как трезвый, остроумный комментатор этой критики. «Сказочник» — автопародия и рефлексия по поводу цены «независимых кинематографистов» и их небескорыстных отношений с реальностью.




Страна: США
Студия: Good Machine, Killer Films, New Line Cinema
Продолжительность: 01:23:19
Перевод: Авторский (одноголосый закадровый) Сербин

Файл
Кодек: DivX
Качество: DVDRip

Видео: 720x384 (1.88:1), 25 fps, DivX Codec 6.8.5/6.9.1 ~2285 kbps avg, 0.33 bit/pixel
Аудио: 48 kHz, AC3 Dolby Digital, 2/0 (L,R) ch, ~192 kbps
MediaInfo
Формат : AVI
Формат/Информация : Audio Video Interleave
Размер файла : 1,45 Гбайт
Продолжительность : 1 ч. 23 м.
Общий поток : 2487 Кбит/сек
Библиотека кодирования : VirtualDub build 34807/release

Видео
Идентификатор : 0
Формат : MPEG-4 Visual
Параметр BVOP формата : 1
Параметр QPel формата : Нет
Параметр GMC формата : Без точки перехода
Параметр матрицы формата : Default (H.263)
Идентификатор кодека : DX50
Идентификатор кодека/Подсказка : DivX 5
Продолжительность : 1 ч. 23 м.
Битрейт : 2286 Кбит/сек
Ширина : 720 пикселей
Высота : 384 пикселя
Соотношение сторон : 1,875
Частота кадров : 25,000 кадров/сек
Цветовое пространство : YUV
Субдискретизация насыщенности : 4:2:0
Битовая глубина : 8 бит
Тип развёртки : Прогрессивная
Метод сжатия : С потерями
Бит/(Пиксели*Кадры) : 0.331
Размер потока : 1,33 Гбайт (92%)
Библиотека кодирования : DivX 6.8.5 (UTC 2009-08-20)

Аудио
Идентификатор : 1
Формат : AC-3
Формат/Информация : Audio Coding 3
Расширение режима : CM (complete main)
Идентификатор кодека : 2000
Продолжительность : 1 ч. 23 м.
Вид битрейта : Постоянный
Битрейт : 192 Кбит/сек
Каналы : 2 канала
Расположение каналов : Front: L R
Частота : 48,0 КГц
Битовая глубина : 16 бит
Метод сжатия : С потерями
Размер потока : 114 Мбайт (8%)
Выравнивание : Соединение по промежуткам
Продолжительность промежутка : 40 мс. (1,00 видеокадр)
Время предзагрузки промежутка : 512 мс.

Скриншоты
 

Вложения

  • 29,9 KB Просмотры: 1
    Личеров 0
    Сидеров 0
    Файлов 1
    Объем 1,4 GB

Привет!

Мы группа людей которые решили помочь другим в решении их проблем, а так же пользователям с поиском самых свежих и качественных инфопродуктов. За 4 с небольшим месяца мы создали этот форум на который заходят ежедневно тысячи человек и посещаемость постоянно растёт. Мы создали панель лицензирования для защиты PHP скриптов от воровства и SEO панель для мониторинга наших сайтов и выбора верной стратегии их развития. Мы надеемся что то что мы создали пригодится Вам и возможно Вы поможете нам развиваться и совершенствоваться вместе с Вами.

Статистика форума

Темы
413.020
Сообщения
472.376
Пользователи
93.521
Новый пользователь
YanaBaranova

Приложения форума для iOS и Android


У ркн там нет власти ;)
Приватные разговоры
Помощь Пользователи
    Вы не присоединились ни к одной комнате.