За последнюю неделю опубликовано 28 новых материалов.
Инструкция новичку Путеводитель по форуму Прокси для Telegram Показать подсказки , это бомба!

Скачать Сказки туманной луны после дождя / Ugetsu monogatari (1953) BDRip 1080p | P, P2 бесплатно через торрент

  • Поучаствуй (в качестве покупателя) в любых пяти совместных покупках (кроме завершённых и "Моментальных") и получи группу "Новичок" навсегда -> ссылка на раздел
  • Получай до 480 рублей за каждого приглашенного пользователя!
    представляем Вам очередное расширение партнерской программы, подробности описаны тут -> ссылка
  • 90% материалов доступно к скачиванию после простой регистрации!
    Если же ты хочешь скачивать материалы без требования оставлять отзывы то получи группу "Новичок", 10 способов повышения описаны тут -> ссылка
  • К сожалению количество битых ссылок растет и мы уже не можем их оперативно восстанавливать поэтому просим помощи у каждого нашего пользователя.
    С сегодняшнего дня, за каждую восстановленную ссылку мы заплатим Вам.
    Подробнее тут -> ссылка
  • Перенесем твои заслуги с другого ресурса!
    Мы понимаем как сложно прокачивать аккаунты на форумах, вроде раскачал аккаунт, а тут появляется ресурс в 100 раз круче но тоже с системой прокачки и снова качать аккаунт...
    Предлагаем вам перенести Ваши заслуги на другом подобном ресурсе к нам.
    Подробности описаны тут -> ссылка
  • Вы можете получать по 2.5% с каждой покупки и продажи на маркете! Подробности в теме Партнёрская программа
Если Вы не хотите скачивать, Вы всегда можетепосмотретьонлайн, просто нажмите кнопку ниже :

Открыть плеер

Torrent_Bot

Торрент-Бот
Бот форума
4 Окт 2016
93
160
20



Информация о фильме
Название: Сказки туманной луны после дождя
Оригинальное название: Ugetsu monogatari
Год выхода: 1953
Жанр: драма, мистика, фэнтези
Режиссер: Кэндзи Мидзогути
В ролях: Матико Кё, Мицуко Мито, Кинуё Танака, Масаюки Мори, Эйтаро Одзава, Сугисаку Аояма, Мицусабуро Рамон, Рёскэ Кагава, Китидзиро Уэда, Сёдзо Нанбу и др.

16 век. В Японии идет гражданская война. Бедный горшечник получает шанс, как следует подзаработать - его горшки на удивление хорошо продаются, и изумленный ремесленник крепко держит в кулаке невиданные доселе серебряные монеты. Заработок вызывает азарт, быстро переходящий в одержимость...


Страна: Япония
Студия: Daiei Studios
Продолжительность: 01:37:11
Перевод: №1: Профессиональный (многоголосый закадровый) Студия Акцент
№2: Профессиональный (двухголосый закадровый) Светла

Файл
Кодек: AVC, [email protected]
Качество: BDRip 1080p.
Видео: 10.7 Mb/s, 1440x1080p., Dar: 4:3, 23.976 fps.
Звук: №1-AC3, 192 kbps., 48.0 kHz., Stereo, rus.;
№2-AC3, 192 kbps., 48.0 kHz., Stereo, rus.;
№3-AC3, 256 kbps., 48.0 kHz., Mono, jap.;
№4-AC3, 192 kbps., 48.0 kHz., Mono, eng.
Субтитры: русские, английские

Скриншоты
Mediainfo
General
Unique ID : 84831538460840426833975087560278577847 (0x3FD1F5C38B4DB5F542BF6CFA11F292B7)
Complete name : D:Т-файлыUgetsu.1953.BDRip.1080p..mkv
Format : Matroska
Format version : Version 4 / Version 2
File size : 7.58 GiB
Duration : 1 h 37 min
Overall bit rate : 11.2 Mb/s
Movie name : Ugetsu.1953.BDRip.1080p.Dafty
Encoded date : UTC 2020-05-20 18:03:37
Writing application : mkvmerge v45.0.0 ('Heaven in Pennies') 64-bit
Writing library : libebml v1.3.10 + libmatroska v1.5.2
Cover : Yes
Attachments : cover.jpg

Video
ID : 1
Format : AVC
Format/Info : Advanced Video Codec
Format profile : [email protected]
Format settings, CABAC : Yes
Format settings, RefFrames : 5 frames
Codec ID : V_MPEG4/ISO/AVC
Duration : 1 h 37 min
Bit rate : 10.7 Mb/s
Width : 1 440 pixels
Height : 1 080 pixels
Display aspect ratio : 4:3
Frame rate mode : Constant
Frame rate : 23.976 (24000/1001) FPS
Color space : YUV
Chroma subsampling : 4:2:0
Bit depth : 8 bits
Scan type : Progressive
Bits/(Pixel*Frame) : 0.286
Stream size : 7.01 GiB (93%)
Title : Ugetsu.1953.BDRip.1080p.Dafty
Writing library : x264 core 157 r2969 d4099dd
Encoding settings : cabac=1 / ref=5 / deblock=1:-2:-2 / analyse=0x3:0x133 / me=tesa / subme=10 / psy=1 / psy_rd=1.05:0.25 / mixed_ref=1 / me_range=48 / chroma_me=1 / trellis=2 / 8x8dct=1 / cqm=0 / deadzone=6,6 / fast_pskip=0 / chroma_qp_offset=-4 / threads=7 / lookahead_threads=1 / sliced_threads=0 / nr=0 / decimate=0 / interlaced=0 / bluray_compat=0 / constrained_intra=0 / bframes=3 / b_pyramid=2 / b_adapt=2 / b_bias=0 / direct=3 / weightb=1 / open_gop=0 / weightp=2 / keyint=240 / keyint_min=24 / scenecut=40 / intra_refresh=0 / rc_lookahead=0 / rc=cbr / mbtree=0 / bitrate=10676 / ratetol=1.0 / qcomp=0.80 / qpmin=3 / qpmax=69 / qpstep=4 / vbv_maxrate=10676 / vbv_bufsize=7625 / nal_hrd=none / filler=0 / ip_ratio=1.10 / pb_ratio=1.10 / aq=2:0.50
Language : Japanese
Default : Yes
Forced : No

Audio #1
ID : 2
Format : AC-3
Format/Info : Audio Coding 3
Format settings, Endianness : Big
Codec ID : A_AC3
Duration : 1 h 37 min
Bit rate mode : Constant
Bit rate : 192 kb/s
Channel(s) : 2 channels
Channel positions : Front: L R
Sampling rate : 48.0 kHz
Frame rate : 31.250 FPS (1536 SPF)
Bit depth : 16 bits
Compression mode : Lossy
Stream size : 133 MiB (2%)
Title : MVO [Студия Акцент]
Language : Russian
Service kind : Complete Main
Default : Yes
Forced : No

Audio #2
ID : 3
Format : AC-3
Format/Info : Audio Coding 3
Format settings, Endianness : Big
Codec ID : A_AC3
Duration : 1 h 37 min
Bit rate mode : Constant
Bit rate : 192 kb/s
Channel(s) : 2 channels
Channel positions : Front: L R
Sampling rate : 48.0 kHz
Frame rate : 31.250 FPS (1536 SPF)
Bit depth : 16 bits
Compression mode : Lossy
Stream size : 133 MiB (2%)
Title : DVO [Светла]
Language : Russian
Service kind : Complete Main
Default : No
Forced : No

Audio #3
ID : 4
Format : AC-3
Format/Info : Audio Coding 3
Format settings, Endianness : Big
Codec ID : A_AC3
Duration : 1 h 37 min
Bit rate mode : Constant
Bit rate : 256 kb/s
Channel(s) : 1 channel
Channel positions : Front: C
Sampling rate : 48.0 kHz
Frame rate : 31.250 FPS (1536 SPF)
Bit depth : 16 bits
Compression mode : Lossy
Stream size : 178 MiB (2%)
Title : Original
Language : Japanese
Service kind : Complete Main
Default : No
Forced : No

Audio #4
ID : 5
Format : AC-3
Format/Info : Audio Coding 3
Format settings, Endianness : Big
Codec ID : A_AC3
Duration : 1 h 37 min
Bit rate mode : Constant
Bit rate : 192 kb/s
Channel(s) : 1 channel
Channel positions : Front: C
Sampling rate : 48.0 kHz
Frame rate : 31.250 FPS (1536 SPF)
Bit depth : 16 bits
Compression mode : Lossy
Stream size : 133 MiB (2%)
Title : Commentary
Language : English
Service kind : Complete Main
Default : No
Forced : No

Text #1
ID : 6
Format : UTF-8
Codec ID : S_TEXT/UTF8
Codec ID/Info : UTF-8 Plain Text
Duration : 1 h 36 min
Bit rate : 59 b/s
Count of elements : 696
Stream size : 42.1 KiB (0%)
Language : Russian
Default : No
Forced : No

Text #2
ID : 7
Format : UTF-8
Codec ID : S_TEXT/UTF8
Codec ID/Info : UTF-8 Plain Text
Duration : 1 h 36 min
Bit rate : 30 b/s
Count of elements : 751
Stream size : 21.8 KiB (0%)
Title : Eng [BD Criterion]
Language : English
Default : No
Forced : No

Menu
00:00:00.000 : :00:00:00.000
00:02:57.719 : :00:02:57.719
00:08:13.201 : :00:08:13.201
00:13:06.703 : :00:13:06.703
00:20:14.213 : :00:20:14.213
00:23:29.908 : :00:23:29.908
00:29:50.789 : :00:29:50.789
00:33:35.931 : :00:33:35.931
00:36:45.203 : :00:36:45.203
00:42:46.814 : :00:42:46.814
00:48:30.074 : :00:48:30.074
00:54:54.958 : :00:54:54.958
00:57:35.160 : :00:57:35.160
01:01:04.327 : :01:01:04.327
01:05:25.421 : :01:05:25.421
01:10:17.755 : :01:10:17.755
01:13:34.493 : :01:13:34.493
01:23:00.184 : :01:23:00.184
01:30:35.764 : :01:30:35.764
 

Вложения

  • 19,8 KB Просмотры: 0
    Личеров 0
    Сидеров 0
    Файлов 1
    Объем 7,6 GB

Привет!

Мы группа людей которые решили помочь другим в решении их проблем, а так же пользователям с поиском самых свежих и качественных инфопродуктов. За 4 с небольшим месяца мы создали этот форум на который заходят ежедневно тысячи человек и посещаемость постоянно растёт. Мы создали панель лицензирования для защиты PHP скриптов от воровства и SEO панель для мониторинга наших сайтов и выбора верной стратегии их развития. Мы надеемся что то что мы создали пригодится Вам и возможно Вы поможете нам развиваться и совершенствоваться вместе с Вами.

Статистика форума

Темы
406.613
Сообщения
465.071
Пользователи
84.478
Новый пользователь
Кирилл23

Приложения форума для iOS и Android


У ркн там нет власти ;)
Приватные разговоры
Помощь Пользователи
    Вы не присоединились ни к одной комнате.