За последнюю неделю опубликовано 52 новых материалов.
Инструкция новичку Путеводитель по форуму Прокси для Telegram Показать подсказки , это бомба!

Скачать Сказка странствий (1983) DVDRip-AVC бесплатно через торрент

  • Поучаствуй (в качестве покупателя) в любых пяти совместных покупках (кроме завершённых и "Моментальных") и получи группу "Новичок" навсегда -> ссылка на раздел
  • Получай до 480 рублей за каждого приглашенного пользователя!
    представляем Вам очередное расширение партнерской программы, подробности описаны тут -> ссылка
  • 90% материалов доступно к скачиванию после простой регистрации!
    Если же ты хочешь скачивать материалы без требования оставлять отзывы то получи группу "Новичок", 10 способов повышения описаны тут -> ссылка
  • К сожалению количество битых ссылок растет и мы уже не можем их оперативно восстанавливать поэтому просим помощи у каждого нашего пользователя.
    С сегодняшнего дня, за каждую восстановленную ссылку мы заплатим Вам.
    Подробнее тут -> ссылка
  • Перенесем твои заслуги с другого ресурса!
    Мы понимаем как сложно прокачивать аккаунты на форумах, вроде раскачал аккаунт, а тут появляется ресурс в 100 раз круче но тоже с системой прокачки и снова качать аккаунт...
    Предлагаем вам перенести Ваши заслуги на другом подобном ресурсе к нам.
    Подробности описаны тут -> ссылка
  • Вы можете получать по 2.5% с каждой покупки и продажи на маркете! Подробности в теме Партнёрская программа
Если Вы не хотите скачивать, Вы всегда можетепосмотретьонлайн, просто нажмите кнопку ниже :

Открыть плеер

Torrent_Bot

Торрент-Бот
Бот форума
4 Окт 2016
90
166
20
Информация о фильме
Название: Сказка странствий
Год выхода: 1983
Жанр: Сказка, Приключения
Режиссер: Александр Митта
В ролях: Андрей Миронов, Владимир Кремена, Татьяна Аксюта, Владимир Басов, Лев Дуров, Вениамин Смехов, Валерий Сторожик

О фильме:
Жили-были двое бездомных сирот. Маленький Май обладал необыкновенным даром находить спрятанное золото. Однажды в рождественскую ночь злой и жадный Горгон, переодевшись Дедом Морозом, украл мальчика. И тогдаМарта отправилась на поиски брата. В этом нелегком пути ее сопровождал веселый и добрый друг Орландо — врач, поэт, философ, путешественник. Пока Марта искала брата, Май превратился в жадного и черствого человека. Но терпение, любовь, надежда и новый друг помогли девочке воскресить его душу.



Страна: СССР, Чехословакия, Румыния
Продолжительность: 01:43:42
Перевод: Оригинал

Файл
Кодек: x.264 10bit
Качество: DVDRip-AVC
Видео: 766x572, 4635 Kbps, 24к/с
Звук:
Mp3-320 kbps, 48 kHz, mono
Mp3-320 kbps, 48 kHz, 2 channels (5.1 dowsample to stereo)

Сравнение с оригиналом:Not found : Screenshot Comparison

Альтернативное сравнение
Соответственно до и после.



Скриншоты
MediaInfo
General
Unique ID : 194191141890252172396522789009181963333 (0x9217DA7FA39EB458A2C4BEF24EF4F445)
Complete name : E:TorrentSkazka Stranstviy.mkv
Format : Matroska
Format version : Version 4 / Version 2
File size : 3.82 GiB
Duration : 1h 43mn
Overall bit rate : 5 275 Kbps
Encoded date : UTC 2016-03-12 15:43:10
Writing application : mkvmerge v7.8.0 ('River Man') 64bit built on Mar 27 2015 16:31:37
Writing library : libebml v1.3.1 + libmatroska v1.4.2
DURATION : 01:43:36.216000000
NUMBER_OF_FRAMES : 259009
NUMBER_OF_BYTES : 248648640
_STATISTICS_WRITING_APP : mkvmerge v7.8.0 ('River Man') 64bit built on Mar 27 2015 16:31:37
_STATISTICS_WRITING_DATE_UTC : 2016-03-12 15:43:10
_STATISTICS_TAGS : BPS DURATION NUMBER_OF_FRAMES NUMBER_OF_BYTES

Video
ID : 1
Format : AVC
Format/Info : Advanced Video Codec
Format profile : High [email protected]
Format settings, CABAC : Yes
Format settings, ReFrames : 16 frames
Codec ID : V_MPEG4/ISO/AVC
Duration : 1h 43mn
Bit rate : 4 530 Kbps
Width : 766 pixels
Height : 572 pixels
Display aspect ratio : 4:3
Frame rate mode : Constant
Frame rate : 24.000 fps
Color space : YUV
Chroma subsampling : 4:2:0
Bit depth : 10 bits
Scan type : Progressive
Bits/(Pixel*Frame) : 0.431
Stream size : 3.28 GiB (86%)
Writing library : x264 core 146 r2538kMod 121396c
Encoding settings : cabac=1 / ref=16 / deblock=1:0:0 / analyse=0x3:0x133 / me=umh / subme=11 / psy=1 / fade_compensate=0.00 / psy_rd=1.00:0.10 / mixed_ref=1 / me_range=64 / chroma_me=1 / trellis=2 / 8x8dct=1 / cqm=0 / deadzone=21,11 / fast_pskip=0 / chroma_qp_offset=-3 / threads=6 / lookahead_threads=1 / sliced_threads=0 / nr=0 / decimate=1 / interlaced=0 / bluray_compat=0 / constrained_intra=0 / fgo=0 / bframes=16 / b_pyramid=2 / b_adapt=2 / b_bias=0 / direct=3 / weightb=1 / open_gop=0 / weightp=2 / keyint=240 / keyint_min=24 / scenecut=40 / intra_refresh=0 / rc=crf / mbtree=0 / crf=15.0000 / qcomp=0.60 / qpmin=0 / qpmax=81 / qpstep=4 / ip_ratio=1.40 / pb_ratio=1.30 / aq=3:0.70
Default : Yes
Forced : No

Audio #1
ID : 2
Format : MPEG Audio
Format version : Version 1
Format profile : Layer 3
Codec ID : A_MPEG/L3
Codec ID/Hint : MP3
Duration : 1h 43mn
Bit rate mode : Constant
Bit rate : 320 Kbps
Channel(s) : 1 channel
Sampling rate : 48.0 KHz
Compression mode : Lossy
Stream size : 237 MiB (6%)
Title : mono
Writing library : LAME3.99r
Encoding settings : -m m -V 4 -q 0 -lowpass 20.5
Language : Russian
Default : Yes
Forced : No

Audio #2
ID : 3
Format : MPEG Audio
Format version : Version 1
Format profile : Layer 3
Mode : Joint stereo
Mode extension : MS Stereo
Codec ID : A_MPEG/L3
Codec ID/Hint : MP3
Duration : 1h 43mn
Bit rate mode : Constant
Bit rate : 320 Kbps
Channel(s) : 2 channels
Sampling rate : 48.0 KHz
Compression mode : Lossy
Stream size : 237 MiB (6%)
Title : downmix to stereo
Writing library : LAME3.99r
Encoding settings : -m j -V 4 -q 0 -lowpass 20.5
Language : Russian
Default : No
Forced : No
Релиз от: Собственный рип с ремастированного DVD студии "Крупный План"
Доп. информация: Что было сделано. Немного поправил уровни, так как фильм слишком затемнён, использовал алгоритм повышения детализации, дебандинг, почистил шум, привёл к оригинальной скорости плёнки 24к/с, исправил тональность звука, как должно быть в оригинале, закодировал 10-битным кодеком, так как с ним лучше сохраняются детали на тёмных кадрах.
Субъективно, на мой вкус, DVD издание от Крупного Плана не смотря на тёмную картинку имеет преимущество перед немецким DVD более полным кадром, отсутствием дефекта "шахматы", для исправления которого нужно ещё больше замыливать картинку, так же цвет более естественный для кино. Тем не менее нужно иметь в виду, что есть и такая версия фильма, которая кому то может показаться получше, но в обоих вариантах придётся чем то жертвовать, хорошей версии к сожалению пока найти не удалось.
 

Вложения

  • 20,1 KB Просмотры: 0
    Личеров 0
    Сидеров 0
    Файлов 1
    Объем 3,8 GB

Привет!

Мы группа людей которые решили помочь другим в решении их проблем, а так же пользователям с поиском самых свежих и качественных инфопродуктов. За 4 с небольшим месяца мы создали этот форум на который заходят ежедневно тысячи человек и посещаемость постоянно растёт. Мы создали панель лицензирования для защиты PHP скриптов от воровства и SEO панель для мониторинга наших сайтов и выбора верной стратегии их развития. Мы надеемся что то что мы создали пригодится Вам и возможно Вы поможете нам развиваться и совершенствоваться вместе с Вами.

Статистика форума

Темы
410.907
Сообщения
469.327
Пользователи
88.128
Новый пользователь
Kali_terif

Приложения форума для iOS и Android


У ркн там нет власти ;)
Приватные разговоры
Помощь Пользователи
    Вы не присоединились ни к одной комнате.