За последнюю неделю опубликовано 194 новых материалов.
Инструкция новичку Путеводитель по форуму Прокси для Telegram Показать подсказки , это бомба!

Скачать Сказка о хвосте феи / Fairy Tail [S03] (2018) WEBRip | L1 бесплатно через торрент

  • Поучаствуй (в качестве покупателя) в любых пяти совместных покупках (кроме завершённых и "Моментальных") и получи группу "Новичок" навсегда -> ссылка на раздел
  • Получай до 480 рублей за каждого приглашенного пользователя!
    представляем Вам очередное расширение партнерской программы, подробности описаны тут -> ссылка
  • 90% материалов доступно к скачиванию после простой регистрации!
    Если же ты хочешь скачивать материалы без требования оставлять отзывы то получи группу "Новичок", 10 способов повышения описаны тут -> ссылка
  • К сожалению количество битых ссылок растет и мы уже не можем их оперативно восстанавливать поэтому просим помощи у каждого нашего пользователя.
    С сегодняшнего дня, за каждую восстановленную ссылку мы заплатим Вам.
    Подробнее тут -> ссылка
  • Перенесем твои заслуги с другого ресурса!
    Мы понимаем как сложно прокачивать аккаунты на форумах, вроде раскачал аккаунт, а тут появляется ресурс в 100 раз круче но тоже с системой прокачки и снова качать аккаунт...
    Предлагаем вам перенести Ваши заслуги на другом подобном ресурсе к нам.
    Подробности описаны тут -> ссылка
  • Вы можете получать по 2.5% с каждой покупки и продажи на маркете! Подробности в теме Партнёрская программа

Torrent_Bot

Торрент-Бот
Бот форума
4 Окт 2016
124
94
20



Страна: Япония
Год выпуска: 2018
Жанр: приключения, фэнтези
Тип: TV
Продолжительность: ТВ (>25 эп.), 00:24:00
Режиссер: Исихира Синдзи
Студия: A-1 Pictures Inc. Bridge

Описание:
Прошёл год с тех пор, как Макаров объявил о роспуске Хвоста феи. Все члены гильдии разошлись по миру. Люси всерьёз занялась журналистикой в столице. Но скуку её новой жизни развеял Нацу, неожиданно заявившийся на Великие магические игры. Теперь они вместе отправились на поиски остальных участников легендарной гильдии.

Доп. информация:
Релиз GSGroup


Серия состоит из:

#1 Фейри Тейл [ТВ-1] - ТВ (175 эп.), адаптация манги, 2009
#2 Фейри Тейл OVA-1 - OVA (5 эп.), spinoff (ответвление сюжета), 2011
#3 Fairy Tail x Rave - OVA (1 эп.), адаптация манги, 2013
#4 Фейри Тейл (фильм) - п/ф, адаптация манги, 2012
#5 Фейри Тейл [ТВ-2] - ТВ (90 эп.), продолжение, 2014
#6 Фейри Тейл Зеро - ТВ (12 эп.), предыстория, 2016
#7 Фейри Тейл OVA-2 - OVA (3 эп.), spinoff (ответвление сюжета), 2016
#8 Gekijouban Fairy Tail: Dragon Cry - п/ф, spinoff (ответвление сюжета), 2017
#9 Фейри Тейл [ТВ-3] - ТВ (>25 эп.), продолжение, 2018

Качество: WEBRip
Тип релиза: Без хардсаба
Формат видео: AVI
Видео: XviD, 720x400, 23.976 fps, 1412 Kbps, 8 bits
Аудио 1: AC-3, 44.1 KHz, 192 Kbps, 2 channels Язык Русский (в составе контейнера) ; Озвучка: Любительский одноголосый (Persona99)
Аудио 2: AC-3, 44.1 KHz, 192 Kbps, 2 channels Язык Японский ; Озвучка 2: оригинал
Субтитры: внешние srt, ass Язык субтитров русский Перевод risens team, Crunchyroll
Подробные тех. данные
General
Complete name :EFairy Tail TV3 (2018)Fairy Tail [TV-3] - 01 [Persona99](XviD 720x400 AC3).rus.jap.avi
Format : AVI
Format/Info : Audio Video Interleave
File size : 309 MiB
Duration : 23mn 50s
Overall bit rate : 1 810 Kbps
Writing application : VirtualDubMod 1.5.10.2 (build 2540/release)
Writing library : VirtualDubMod build 2540/release

Video
ID : 0
Format : MPEG-4 Visual
Format profile : Advanced Simple@L5
Format settings, BVOP : 2
Format settings, QPel : No
Format settings, GMC : No warppoints
Format settings, Matrix : Default (H.263)
Codec ID : XVID
Codec ID/Hint : XviD
Duration : 23mn 50s
Bit rate : 1 412 Kbps
Width : 720 pixels
Height : 400 pixels
Display aspect ratio : 16:9
Frame rate : 23.976 fps
Color space : YUV
Chroma subsampling : 4:2:0
Bit depth : 8 bits
Scan type : Progressive
Compression mode : Lossy
Bits/(Pixel*Frame) : 0.204
Stream size : 241 MiB (78%)
Writing library : XviD 67

Audio #1
ID : 1
Format : AC-3
Format/Info : Audio Coding 3
Mode extension : CM (complete main)
Format settings, Endianness : Big
Codec ID : 2000
Duration : 23mn 50s
Bit rate mode : Constant
Bit rate : 192 Kbps
Channel(s) : 2 channels
Channel positions : Front: L R
Sampling rate : 44.1 KHz
Compression mode : Lossy
Stream size : 32.7 MiB (11%)
Alignment : Split accross interleaves
Interleave, duration : 42 ms (1.00 video frame)
Interleave, preload duration : 500 ms

Audio #2
ID : 2
Format : AC-3
Format/Info : Audio Coding 3
Mode extension : CM (complete main)
Format settings, Endianness : Big
Codec ID : 2000
Duration : 23mn 50s
Bit rate mode : Constant
Bit rate : 192 Kbps
Channel(s) : 2 channels
Channel positions : Front: L R
Sampling rate : 44.1 KHz
Compression mode : Lossy
Stream size : 32.7 MiB (11%)
Alignment : Split accross interleaves
Interleave, duration : 42 ms (1.00 video frame)
Interleave, preload duration : 500 ms
Список эпизодов
01. The Lamia Scale Thanksgiving Festival
02. Because I Love You
03. Avatar
04. Underground Clash
05. The Purification Plan
06. Ikusatsunagi
07. Memoirs
08.The 7th Guild Master
09. Law of Space
10. Emperor Spriggan
11. To the God-Forsaken Land
12. Mavis and Zeref
13. Fairy Heart
14. The Magnolia Defensive War
15. Morning Star
16. For Whom the Parfum Flows
17. Natsu vs. Zeref
18. Across 400 Years
19. What I Want to Do
20. Not Until the Battle Is Over
21. In a Silent Time
22. Natsu, Revived!!
23. Historia of Corpses
24. Mettle
25. The Third Seal
26. Together, Always
27. Fairy Tail Zero
28. White Dragneel
29. The Winter Wizard
30. Gray and Juvia
31. The Mightiest Demon of the Book of Zeref
32. Broken Bonds
33. Pleasure and Pain
34. Natsu`s Mind
35. Sting, the White Shadow Dragon
36. Dragon Seed
37. Master Enchant
38. Dragon or Demon
39. Gray`s Trump Card
40. Dark Future
41. My Name Is...
42. Compassion
43. Neo Eclipse
44. Blind to Love
45. The Door of Vows
46. Raging Fire of the Dragon
47. When the Fire Dies
48. World Destruction
49. Magic of Hope
50. Hearts Connected
51. Dearest Friends
Скриншоты

Семпл:
 

Вложения

  • 92,4 KB Просмотры: 0
    Личеров 0
    Сидеров 0
    Файлов 153
    Объем 15,2 GB
Ваш e-mail не будет опубликован. Он потребуется для подтверждения Вашего поста.
Оформление текста Нажмите «Ввод», чтобы отправить ответ.

Привет!

Мы группа людей которые решили помочь другим в решении их проблем, а так же пользователям с поиском самых свежих и качественных инфопродуктов. За 4 с небольшим месяца мы создали этот форум на который заходят ежедневно тысячи человек и посещаемость постоянно растёт. Мы создали панель лицензирования для защиты PHP скриптов от воровства и SEO панель для мониторинга наших сайтов и выбора верной стратегии их развития. Мы надеемся что то что мы создали пригодится Вам и возможно Вы поможете нам развиваться и совершенствоваться вместе с Вами.

Статистика форума

Темы
378.709
Сообщения
417.938
Пользователи
49.474
Новый пользователь
lolololol

Приложения форума для iOS и Android


У ркн там нет власти ;)
Приватные разговоры
Помощь Пользователи
    Вы не присоединились ни к одной комнате.