За последнюю неделю опубликовано 26 новых материалов.
Инструкция новичку Путеводитель по форуму Прокси для Telegram Показать подсказки , это бомба!

Скачать Сказка о хвосте феи / Fairy Tail [S03] (2018-2019) HDTVRip 720p от Anilibria | L бесплатно через торрент

  • Поучаствуй (в качестве покупателя) в любых пяти совместных покупках (кроме завершённых и "Моментальных") и получи группу "Новичок" навсегда -> ссылка на раздел
  • Получай до 480 рублей за каждого приглашенного пользователя!
    представляем Вам очередное расширение партнерской программы, подробности описаны тут -> ссылка
  • 90% материалов доступно к скачиванию после простой регистрации!
    Если же ты хочешь скачивать материалы без требования оставлять отзывы то получи группу "Новичок", 10 способов повышения описаны тут -> ссылка
  • К сожалению количество битых ссылок растет и мы уже не можем их оперативно восстанавливать поэтому просим помощи у каждого нашего пользователя.
    С сегодняшнего дня, за каждую восстановленную ссылку мы заплатим Вам.
    Подробнее тут -> ссылка
  • Перенесем твои заслуги с другого ресурса!
    Мы понимаем как сложно прокачивать аккаунты на форумах, вроде раскачал аккаунт, а тут появляется ресурс в 100 раз круче но тоже с системой прокачки и снова качать аккаунт...
    Предлагаем вам перенести Ваши заслуги на другом подобном ресурсе к нам.
    Подробности описаны тут -> ссылка
  • Вы можете получать по 2.5% с каждой покупки и продажи на маркете! Подробности в теме Партнёрская программа

Torrent_Bot

Торрент-Бот
Бот форума
4 Окт 2016
122
116
20



Информация о фильме
Название: Хвост Феи (Сказка о Хвосте Феи, Фейри Тейл)
Оригинальное название: Fairy Tail
Страна: Япония
Год выхода: 2018-2019
Жанр: приключения, фэнтези, сёнэн
Режиссер: Исихира Синдзи
Автор оригинала: Масима Хиро

О фильме: Прошёл год с тех пор, как Макаров объявил о роспуске Хвоста феи. Все члены гильдии разошлись по миру. Люси всерьёз занялась журналистикой в столице. Но скуку её новой жизни развеял Нацу, неожиданно заявившийся на Великие магические игры. Теперь они вместе отправились на поиски остальных участников легендарной гильдии.

Студия:



Продолжительность: ~ 00:24:00
Перевод: Любительский (многоголосый закадровый)
Озвучили: Lupin & Aemi & Kanade Eu & Ados & Amikiri, Narea, Ados (Anilibria)
Тайминг: Пиратехник
Сборка контейнера: Eugeo

Файл
Формат: mp4
Качество: HDTVRip 720p
Видео: H.264; 1280x720; ~ 2000 Kbps, 23.976fps; (8 bit)
Аудио 1: AAC 48000 Hz, 2.0, 192 kbps Язык Русский
Аудио 2: AAC 48000,44100 Hz, 2.0, ~ 192 kbps Язык Японский
Субтитры: (внешние ASS) Язык субтитров русский ; Перевод: Anilibria

Инфо-файл
Общее
Полное имя : F:AnimeFairy Tail [TV-3[AniLibria]Fairy Tail [TV-3] - 01 [ Lupin & Aemi & Kanade Eu & Ados].ass
Размер файла : 31,3 Кбайт

Общее
Полное имя : F:AnimeFairy Tail [TV-3[AniLibria]Fairy Tail [TV-3] - 01 [ Lupin & Aemi & Kanade Eu & Ados].mp4
Формат : MPEG-4
Профиль формата : Base Media
Идентификатор кодека : isom
Размер файла : 416 Мбайт
Продолжительность : 24 м.
Режим общего битрейта : Переменный
Общий поток : 2407 Кбит/сек
Дата кодирования : UTC 2018-10-07 19:38:40
Дата пометки : UTC 2018-10-07 19:38:40
Программа кодирования : Yamb 2.1.0.0 [http://yamb.unite-video.com]

Видео
Идентификатор : 1
Формат : AVC
Формат/Информация : Advanced Video Codec
Профиль формата : High@L4.1
Параметр CABAC формата : Да
Параметр ReFrames формата : 4 кадра
Идентификатор кодека : avc1
Идентификатор кодека/Информация : Advanced Video Coding
Продолжительность : 24 м.
Битрейт : 2018 Кбит/сек
Максимальный битрейт : 12,5 Мбит/сек
Ширина : 1280 пикселей
Высота : 720 пикселей
Соотношение сторон : 16:9
Режим частоты кадров : Постоянный
Частота кадров : 23,976 кадра/сек
Цветовое пространство : YUV
Субдискретизация насыщенности : 4:2:0
Битовая глубина : 8 бит
Тип развёртки : Прогрессивная
Бит/(Пиксели*Кадры) : 0.091
Размер потока : 349 Мбайт (84%)
Заголовок : 264
Библиотека кодирования : x264 core 129 r2245+729M 1a52e03
Настройки программы : cabac=1 / ref=4 / deblock=1:1:-1 / analyse=0x3:0x113 / me=umh / subme=9 / psy=1 / fade_compensate=0.00 / psy_rd=1.00:0.00 / mixed_ref=1 / me_range=24 / chroma_me=1 / trellis=2 / 8x8dct=1 / cqm=0 / deadzone=21,11 / fast_pskip=1 / chroma_qp_offset=-2 / threads=8 / lookahead_threads=1 / sliced_threads=0 / nr=0 / decimate=1 / interlaced=0 / bluray_compat=0 / constrained_intra=0 / fgo=0 / bframes=9 / b_pyramid=2 / b_adapt=2 / b_bias=0 / direct=1 / weightb=1 / open_gop=0 / weightp=2 / keyint=240 / keyint_min=24 / scenecut=40 / intra_refresh=0 / rc=crf / mbtree=0 / crf=18.5 / qcomp=0.72 / qpmin=0 / qpmax=69 / qpstep=4 / ip_ratio=1.40 / pb_ratio=1.30 / aq=1:0.85
Дата кодирования : UTC 2018-10-07 17:58:13
Дата пометки : UTC 2018-10-07 19:38:49
Цветовой диапазон : Limited
Основные цвета : BT.709
Характеристики трансфера : BT.709
Коэффициенты матрицы : BT.709

Аудио #1
Идентификатор : 2
Формат : AAC
Формат/Информация : Advanced Audio Codec
Профиль формата : LC
Идентификатор кодека : 40
Продолжительность : 24 м.
Вид битрейта : Переменный
Битрейт : 192 Кбит/сек
Максимальный битрейт : 198 Кбит/сек
Каналы : 2 канала
Расположение каналов : Front: L R
Частота : 48,0 КГц
Метод сжатия : С потерями
Размер потока : 33,2 Мбайт (8%)
Заголовок : Lupin Aemi Kanade Eu Ados
Язык : Russian
Дата кодирования : UTC 2018-10-07 19:38:47
Дата пометки : UTC 2018-10-07 19:38:49

Аудио #2
Идентификатор : 3
Формат : AAC
Формат/Информация : Advanced Audio Codec
Профиль формата : LC
Идентификатор кодека : 40
Продолжительность : 24 м.
Вид битрейта : Переменный
Битрейт : 192 Кбит/сек
Максимальный битрейт : 226 Кбит/сек
Каналы : 2 канала
Расположение каналов : Front: L R
Частота : 48,0 КГц
Метод сжатия : С потерями
Размер потока : 33,2 Мбайт (8%)
Язык : Japanese
Дата кодирования : UTC 2018-10-07 19:38:48
Дата пометки : UTC 2018-10-07 19:38:49
Список серий
01. The Lamia Scale Thanksgiving Festival
02. Because I Love You
03. Avatar
04. Underground Clash
05. The Purification Plan
06. Ikusatsunagi
07. Memoirs
08.The 7th Guild Master
10. Emperor Spriggan
11. To the God-Forsaken Land
12. Mavis and Zeref
13. Fairy Heart
14. The Magnolia Defensive War
15. Morning Star
16. For Whom the Parfum Flows
17. Natsu vs. Zeref
18. Across 400 Years
19. What I Want to Do
20. Not Until the Battle Is Over
21. In a Silent Time
22. Natsu, Revived!!
23. Historia of Corpses
24. Mettle
25. The Third Seal
26. Together, Always
27. Fairy Tail Zero
28. White Dragneel
29. The Winter Wizard
30. Gray and Juvia
31. The Mightiest Demon of the Book of Zeref
32. Broken Bonds
33. Pleasure and Pain
34. Natsu`s Mind
35. Sting, the White Shadow Dragon
36. Dragon Seed
37. Master Enchant
38. Dragon or Demon
39. Gray`s Trump Card
40. Dark Future
41. My Name Is...
42. Compassion
43. Neo Eclipse
44. Blind to Love
45. The Door of Vows
46. Raging Fire of the Dragon
47. When the Fire Dies
48. World Destruction
49. Magic of Hope
50. Hearts Connected
51. Dearest Friends
Скриншоты
 

Вложения

  • 68,9 KB Просмотры: 0
    Личеров 0
    Сидеров 0
    Файлов 102
    Объем 23,6 GB

Привет!

Мы группа людей которые решили помочь другим в решении их проблем, а так же пользователям с поиском самых свежих и качественных инфопродуктов. За 4 с небольшим месяца мы создали этот форум на который заходят ежедневно тысячи человек и посещаемость постоянно растёт. Мы создали панель лицензирования для защиты PHP скриптов от воровства и SEO панель для мониторинга наших сайтов и выбора верной стратегии их развития. Мы надеемся что то что мы создали пригодится Вам и возможно Вы поможете нам развиваться и совершенствоваться вместе с Вами.

Статистика форума

Темы
385.054
Сообщения
430.337
Пользователи
62.931
Новый пользователь
IvanSil

Приложения форума для iOS и Android


У ркн там нет власти ;)
Приватные разговоры
Помощь Пользователи
    Вы не присоединились ни к одной комнате.