За последнюю неделю опубликовано 115 новых материалов.
Инструкция новичку Путеводитель по форуму Прокси для Telegram Показать подсказки , это бомба!

Скачать Сказка о хвосте феи / Fairy Tail [S02] (2014) HDTVRip 720p | Ancord бесплатно через торрент

  • Поучаствуй (в качестве покупателя) в любых пяти совместных покупках (кроме завершённых и "Моментальных") и получи группу "Новичок" навсегда -> ссылка на раздел
  • Получай до 480 рублей за каждого приглашенного пользователя!
    представляем Вам очередное расширение партнерской программы, подробности описаны тут -> ссылка
  • 90% материалов доступно к скачиванию после простой регистрации!
    Если же ты хочешь скачивать материалы без требования оставлять отзывы то получи группу "Новичок", 10 способов повышения описаны тут -> ссылка
  • К сожалению количество битых ссылок растет и мы уже не можем их оперативно восстанавливать поэтому просим помощи у каждого нашего пользователя.
    С сегодняшнего дня, за каждую восстановленную ссылку мы заплатим Вам.
    Подробнее тут -> ссылка
  • Перенесем твои заслуги с другого ресурса!
    Мы понимаем как сложно прокачивать аккаунты на форумах, вроде раскачал аккаунт, а тут появляется ресурс в 100 раз круче но тоже с системой прокачки и снова качать аккаунт...
    Предлагаем вам перенести Ваши заслуги на другом подобном ресурсе к нам.
    Подробности описаны тут -> ссылка
  • Вы можете получать по 2.5% с каждой покупки и продажи на маркете! Подробности в теме Партнёрская программа

Torrent_Bot

Торрент-Бот
Бот форума
4 Окт 2016
118
147
20


Название: Хвост Феи
Оригинальное название: Fairy Tail
Год выхода: 2014
Жанр: комедия, приключения, сёнэн, фэнтези
Режиссер: Исихира Синдзи
Фейри Тейл – знаменитая на весь мир своими безбашенными выходками Гильдия волшебников по найму. Молодая волшебница Люси была уверена, что, став одним из её членов, попала в самую замечательную на свете Гильдию… до тех пор, пока не познакомилась со своими камрадами – взрывным огнедышащим и сметающим всё на своём пути Нацу, летающим говорящим котом Хэппи, эксгибиционистом Греем, занудой-берсерком Эльзой, гламурным и любвеобильным Локи… Вместе им предстоит одолеть немало врагов и пережить множество незабываемых приключений!

MediaInfo
General
Complete name : /etc/seedbox/home/natsu/data/[AniDub]_Fairy_Tail_TV-2_[720p]_[Ancord]/[AniDub]_Fairy_Tail_TV-2_[176]_[RUS]_[720p_x264_AAC]_[Ancord].mp4
Format : MPEG-4
Format profile : Base Media
Codec ID : isom
File size : 336 MiB
Duration : 24mn 48s
Overall bit rate mode : Variable
Overall bit rate : 1 895 Kbps
Encoded date : UTC 2014-04-05 10:48:48
Tagged date : UTC 2014-04-05 10:48:48
Writing application : Yamb 2.1.0.0 [Yamb » Yet Another MP4Box UI]

Video
ID : 1
Format : AVC
Format/Info : Advanced Video Codec
Format profile : Baseline@L3.1
Format settings, CABAC : No
Format settings, ReFrames : 3 frames
Format settings, GOP : M=1, N=30
Codec ID : avc1
Codec ID/Info : Advanced Video Coding
Duration : 24mn 48s
Bit rate mode : Variable
Bit rate : 1 700 Kbps
Maximum bit rate : 8 000 Kbps
Width : 1 280 pixels
Height : 720 pixels
Display aspect ratio : 16:9
Frame rate mode : Constant
Frame rate : 23.976 fps
Standard : NTSC
Color space : YUV
Chroma subsampling : 4:2:0
Bit depth : 8 bits
Scan type : Progressive
Bits/(Pixel*Frame) : 0.077
Stream size : 302 MiB (90%)
Language : English
Encoded date : UTC 2014-04-05 08:52:40
Tagged date : UTC 2014-04-05 10:48:58

Audio
ID : 2
Format : AAC
Format/Info : Advanced Audio Codec
Format profile : LC
Codec ID : 40
Duration : 24mn 48s
Bit rate mode : Variable
Bit rate : 192 Kbps
Maximum bit rate : 196 Kbps
Channel count : 2 channels
Channel positions : Front: L R
Sampling rate : 48.0 KHz
Compression mode : Lossy
Stream size : 34.1 MiB (10%)
Language : English
Encoded date : UTC 2014-04-05 10:48:58
Tagged date : UTC 2014-04-05 10:48:58
Страна: Япония
Продолжительность: (300 эп.), 25 мин.
Кодек: mkv
Качество: HDTV-Rip 720p
Видео: 1280x720, ~1 895 Kbps , 23.976 fps
Звук: : RU - AAC, 48.0 KHz, 192 kbps, 2ch

Переводчики: Advokat & Bel-chan & Blazing Wizard & Jenia aka Zub & sild & Мария Гостюхина
Озвучивание: Любительский одноголосый закадровый Ancord
Тайминг и работа со звуком:FooBoo

Скриншоты
 

Вложения

  • 28,4 KB Просмотры: 1
    Личеров 0
    Сидеров 0
    Файлов 28
    Объем 9,7 GB

Привет!

Мы группа людей которые решили помочь другим в решении их проблем, а так же пользователям с поиском самых свежих и качественных инфопродуктов. За 4 с небольшим месяца мы создали этот форум на который заходят ежедневно тысячи человек и посещаемость постоянно растёт. Мы создали панель лицензирования для защиты PHP скриптов от воровства и SEO панель для мониторинга наших сайтов и выбора верной стратегии их развития. Мы надеемся что то что мы создали пригодится Вам и возможно Вы поможете нам развиваться и совершенствоваться вместе с Вами.

Статистика форума

Темы
394.377
Сообщения
446.607
Пользователи
75.241
Новый пользователь
cj-electron

Приложения форума для iOS и Android


У ркн там нет власти ;)
Приватные разговоры
Помощь Пользователи
    Вы не присоединились ни к одной комнате.