За последнюю неделю опубликовано 105 новых материалов.
Инструкция новичку Путеводитель по форуму Прокси для Telegram Показать подсказки , это бомба!

Скачать Сказания Земноморья / Gedo Senki (2006) BDRip-AVC бесплатно через торрент

  • Поучаствуй (в качестве покупателя) в любых пяти совместных покупках (кроме завершённых и "Моментальных") и получи группу "Новичок" навсегда -> ссылка на раздел
  • Получай до 480 рублей за каждого приглашенного пользователя!
    представляем Вам очередное расширение партнерской программы, подробности описаны тут -> ссылка
  • 90% материалов доступно к скачиванию после простой регистрации!
    Если же ты хочешь скачивать материалы без требования оставлять отзывы то получи группу "Новичок", 10 способов повышения описаны тут -> ссылка
  • К сожалению количество битых ссылок растет и мы уже не можем их оперативно восстанавливать поэтому просим помощи у каждого нашего пользователя.
    С сегодняшнего дня, за каждую восстановленную ссылку мы заплатим Вам.
    Подробнее тут -> ссылка
  • Перенесем твои заслуги с другого ресурса!
    Мы понимаем как сложно прокачивать аккаунты на форумах, вроде раскачал аккаунт, а тут появляется ресурс в 100 раз круче но тоже с системой прокачки и снова качать аккаунт...
    Предлагаем вам перенести Ваши заслуги на другом подобном ресурсе к нам.
    Подробности описаны тут -> ссылка
  • Вы можете получать по 2.5% с каждой покупки и продажи на маркете! Подробности в теме Партнёрская программа

Torrent_Bot

Торрент-Бот
Бот форума
4 Окт 2016
118
147
20
Информация о фильме
Название: Сказания Земноморья
Оригинальное название: Gedo Senki
Год выхода: 2006
Жанр: Приключения, фэнтези, драма, сказка
Режиссер: Горо Миядзаки
В ролях: Дзюнъити Окада, Аой Тэсима, Юко Танака, Каору Кобаяси, Юй Нацукава, Тэруюки Кагава, Мицуко Байсе, Дзюн Фубуки, Бунта Сугавара, Такаси Найто

О фильме:
Горы, пещеры и замки сказочной страны, драконы и амулеты, заклинания и пророчества, маги и принцы, жрицы и убийцы, злодеи и праведники — в новой приключенческой анимационной фэнтази-саге о волшебном мире Земноморья. Земноморье в опасности, мир волшебства на грани исчезновения. Вселенское равновесие нарушено: драконы, обитающие в западном пределе сказочной страны, неожиданно появляются на востоке во владениях людей. Верховный маг Гед отправляется на поиски первопричины беды. В пути он встречает Аррена, принца Энлада, который после свершения страшного греха, убийства отца, бежит из родного края, преследуемый тенью. Прибыв в столицу Земноморья Норт Таун, путники находят пристанище в доме Белой Дамы, бывшей жрицы-хранительницы темных Гробниц Атуана. Верховный Маг Гед открывает Аррену тайны жизни и смерти, правды и лжи. Призывая служить истине с полной самоотдачей, он словно передает эстафету дерзновенному юноше, которому предначертана особая миссия в этом мире. Но успеют ли они противостать силам зла? Или уже слишком поздно…

8fef6bf93f5bc8e66d94e867fcf112f0.gif


Страна: Япония
Продолжительность: 01:55:32
Перевод: Дублированный

Файл
Кодек: h.264
Качество: BDRip-AVC
Видео: 912x488, 1350 Kbps, 23.976 fps, 0.127 Bits/(Pixel*Frame)
Звук: AC3, 448 Kbps, 6 channels

MI
Format : Matroska
Format version : Version 2
File size : 1.45 GiB
Duration : 1h 55mn
Overall bit rate : 1 799 Kbps
Encoded date : UTC 2013-02-07 06:54:09
Writing application : mkvmerge v5.0.1 ('Es ist Sommer') built on Oct 24 2011 19:45:06
Writing library : libebml v1.2.2 + libmatroska v1.3.0

Video
ID : 1
Format : AVC
Format/Info : Advanced Video Codec
Format profile : High@L4.1
Format settings, CABAC : Yes
Format settings, ReFrames : 16 frames
Codec ID : V_MPEG4/ISO/AVC
Duration : 1h 55mn
Bit rate : 1 350 Kbps
Width : 912 pixels
Height : 488 pixels
Display aspect ratio : 1.85:1
Frame rate : 23.976 fps
Color space : YUV
Chroma subsampling : 4:2:0
Bit depth : 8 bits
Scan type : Progressive
Bits/(Pixel*Frame) : 0.127
Stream size : 1.06 GiB (73%)
Writing library : x264 core 129 r2230 1cffe9f
Encoding settings : cabac=1 / ref=16 / deblock=1:0:0 / analyse=0x3:0x133 / me=umh / subme=11 / psy=1 / psy_rd=1.00:0.00 / mixed_ref=1 / me_range=32 / chroma_me=1 / trellis=2 / 8x8dct=1 / cqm=0 / deadzone=21,11 / fast_pskip=0 / chroma_qp_offset=-2 / threads=9 / lookahead_threads=1 / sliced_threads=0 / nr=0 / decimate=1 / interlaced=0 / bluray_compat=0 / constrained_intra=0 / bframes=8 / b_pyramid=2 / b_adapt=2 / b_bias=0 / direct=3 / weightb=1 / open_gop=0 / weightp=2 / keyint=250 / keyint_min=23 / scenecut=40 / intra_refresh=0 / rc_lookahead=60 / rc=2pass / mbtree=1 / bitrate=1350 / ratetol=1.0 / qcomp=0.60 / qpmin=0 / qpmax=69 / qpstep=4 / cplxblur=20.0 / qblur=0.5 / ip_ratio=1.40 / aq=1:1.00
Language : English
Default : Yes
Forced : No

Audio
ID : 2
Format : AC-3
Format/Info : Audio Coding 3
Mode extension : CM (complete main)
Format settings, Endianness : Big
Codec ID : A_AC3
Duration : 1h 55mn
Bit rate mode : Constant
Bit rate : 448 Kbps
Channel(s) : 6 channels
Channel positions : Front: L C R, Side: L R, LFE
Sampling rate : 48.0 KHz
Bit depth : 16 bits
Compression mode : Lossy
Stream size : 370 MiB (25%)
Title : Русский AC3, 6ch 448 kbps (полное дублирование)
Language : Russian
Default : Yes
Forced : No

x264
x264 [info]: frame I:1239 Avg QP:10.17 size:112162
x264 [info]: frame P:37091 Avg QP:13.75 size: 18459
x264 [info]: frame B:127889 Avg QP:18.10 size: 2706

Скриншоты
2432c45eb309d911c714ca407a3d560a.jpg83c01588026786e237400b6f73ed450f.jpge1cdc8f2bad11d34cf667dac82b4ee89.jpg
 

Вложения

Привет!

Мы группа людей которые решили помочь другим в решении их проблем, а так же пользователям с поиском самых свежих и качественных инфопродуктов. За 4 с небольшим месяца мы создали этот форум на который заходят ежедневно тысячи человек и посещаемость постоянно растёт. Мы создали панель лицензирования для защиты PHP скриптов от воровства и SEO панель для мониторинга наших сайтов и выбора верной стратегии их развития. Мы надеемся что то что мы создали пригодится Вам и возможно Вы поможете нам развиваться и совершенствоваться вместе с Вами.

Статистика форума

Темы
394.378
Сообщения
446.638
Пользователи
75.262
Новый пользователь
mas90

Приложения форума для iOS и Android


У ркн там нет власти ;)
Приватные разговоры
Помощь Пользователи
    Вы не присоединились ни к одной комнате.