За последнюю неделю опубликовано 30 новых материалов.
Инструкция новичку Путеводитель по форуму Прокси для Telegram Показать подсказки , это бомба!

Скачать Скандинавский форсаж / Børning (2014) BDRip 1080p от OlLanDGroup | iTunes бесплатно через торрент

  • Поучаствуй (в качестве покупателя) в любых пяти совместных покупках (кроме завершённых и "Моментальных") и получи группу "Новичок" навсегда -> ссылка на раздел
  • Получай до 480 рублей за каждого приглашенного пользователя!
    представляем Вам очередное расширение партнерской программы, подробности описаны тут -> ссылка
  • 90% материалов доступно к скачиванию после простой регистрации!
    Если же ты хочешь скачивать материалы без требования оставлять отзывы то получи группу "Новичок", 10 способов повышения описаны тут -> ссылка
  • К сожалению количество битых ссылок растет и мы уже не можем их оперативно восстанавливать поэтому просим помощи у каждого нашего пользователя.
    С сегодняшнего дня, за каждую восстановленную ссылку мы заплатим Вам.
    Подробнее тут -> ссылка
  • Перенесем твои заслуги с другого ресурса!
    Мы понимаем как сложно прокачивать аккаунты на форумах, вроде раскачал аккаунт, а тут появляется ресурс в 100 раз круче но тоже с системой прокачки и снова качать аккаунт...
    Предлагаем вам перенести Ваши заслуги на другом подобном ресурсе к нам.
    Подробности описаны тут -> ссылка
  • Вы можете получать по 2.5% с каждой покупки и продажи на маркете! Подробности в теме Партнёрская программа
Если Вы не хотите скачивать, Вы всегда можетепосмотретьонлайн, просто нажмите кнопку ниже :

Открыть плеер

Torrent_Bot

Торрент-Бот
Бот форума
4 Окт 2016
93
160
20


Информация о фильме


Название: Скандинавский форсаж
Оригинальное название: Børning
Год выпуска: 2014
Жанр:Боевик, комедия
Выпущено: Норвегия, Filmkameratene A/S
Режиссер: Хальвард Брейн
В ролях: Андерс Босмо Кристиансен, Тронд Хальбо, Ида Хьюсой, Дженни Скавлан, Отто Йесперсен, Оскар Люндвольд, Хенрик Местад


О фильме: У Роя одна, но пламенная страсть – гонки. И как раз, когда он готовится к важному соревнованию, на горизонте появляется 14-летняя дочь, требующая к себе повышенного внимания. Увлекшись выяснением отношений с ребенком, Рой проигрывает заезд, и теперь у него только один шанс восстановить свою репутацию – участие в гонке «Северный Мыс». Кто первым доберется из Осло до самой северной точки Норвегии, тот и будет признан величайшим гонщиком всех времен и народов…





Качество: BDRip (1080p)
Видео: MPEG-4 AVC, 8896 Кбит/с, 1920x804, 24 кадр/с
Аудио: Русский (AC3, 6 ch, 348 Кбит/с), норвежский (DTS, 6 ch, 1509 Кбит/с)
Размер: 7 ГБ
Продолжительность: 01:32:12
Перевод: Дублированный
Субтитры: Английские, норвежские


Озвучивание - Дублированное (iTunes)
Сохранены оригинальные чаптеры как на Blu-Ray.
За исходник, большое спасибо BLUEBIRD


x264
x264 [info]: frame I:1245 Avg QP:14.23 size:213206
x264 [info]: frame P:35543 Avg QP:17.12 size: 77881
x264 [info]: frame B:96942 Avg QP:18.61 size: 32600
x264 [info]: consecutive B-frames: 4.8% 6.2% 12.3% 30.7% 16.6% 20.7% 4.4% 2.0% 0.8% 0.7% 0.8%
x264 [info]: mb I I16..4: 9.3% 77.2% 13.5%
x264 [info]: mb P I16..4: 1.9% 17.9% 1.6% P16..4: 28.1% 32.0% 9.8% 1.3% 0.1% skip: 7.2%
x264 [info]: mb B I16..4: 0.5% 2.5% 0.2% B16..8: 34.9% 22.1% 3.5% direct: 8.5% skip:27.9% L0:43.8% L1:42.7% BI:13.5%
x264 [info]: 8x8 transform intra:81.7% inter:62.0%
x264 [info]: direct mvs spatial:98.2% temporal:1.8%
x264 [info]: coded y,uvDC,uvAC intra: 84.3% 89.7% 75.3% inter: 27.9% 42.4% 25.1%
x264 [info]: i16 v,h,dc,p: 42% 13% 4% 41%
x264 [info]: i8 v,h,dc,ddl,ddr,vr,hd,vl,hu: 8% 11% 9% 9% 12% 11% 13% 11% 14%
x264 [info]: i4 v,h,dc,ddl,ddr,vr,hd,vl,hu: 28% 11% 8% 6% 12% 9% 11% 7% 8%
x264 [info]: i8c dc,h,v,p: 45% 24% 13% 17%
x264 [info]: Weighted P-Frames: Y:2.4% UV:1.3%
x264 [info]: ref P L0: 49.7% 10.3% 21.5% 9.0% 8.2% 1.3% 0.0%
x264 [info]: ref B L0: 70.6% 20.2% 7.1% 2.1%
x264 [info]: ref B L1: 90.9% 9.1%
x264 [info]: kb/s:8892.67
Инфо-файл
Общее
Уникальный идентификатор : 226296161604734779514467772231218841756 (0xAA3F0E2E43CB7504931BEB39733F489C)
Полное имя : D:ЗагрузкиBorning.2014.x264.BDRip.(1080p).OlLanDGroup.mkv
Формат : Matroska
Версия формата : Version 4 / Version 2
Размер файла : 7,00 Гбайт
Продолжительность : 1 ч. 32 м.
Общий поток : 10,8 Мбит/сек
Название фильма : Скандинавский форсаж.2014.Rip by: ollan
Дата кодирования : UTC 2020-07-04 18:30:03
Программа кодирования : mkvmerge v6.5.0 ('Isn't she lovely') built on Oct 20 2013 12:50:05
Библиотека кодирования : libebml v1.3.0 + libmatroska v1.4.1
Обложка : Yes
Attachments : Cover - Borning.png

Видео
Идентификатор : 1
Формат : AVC
Формат/Информация : Advanced Video Codec
Профиль формата : [email protected]
Настройки формата : CABAC / 5 Ref Frames
Параметр CABAC формата : Да
Параметр ReFrames формата : 5 кадров
Идентификатор кодека : V_MPEG4/ISO/AVC
Продолжительность : 1 ч. 32 м.
Битрейт : 8896 Кбит/сек
Ширина : 1920 пикселей
Высота : 804 пикселя
Соотношение сторон : 2,40:1
Режим частоты кадров : Постоянный
Частота кадров : 24,000 кадра/сек
Цветовое пространство : YUV
Субдискретизация насыщенности : 4:2:0
Битовая глубина : 8 бит
Тип развёртки : Прогрессивная
Бит/(Пиксели*Кадры) : 0.240
Размер потока : 5,63 Гбайт (80%)
Библиотека кодирования : x264 core 146 r2538 121396c
Настройки программы : cabac=1 / ref=5 / deblock=1:-3:-3 / analyse=0x3:0x133 / me=umh / subme=11 / psy=1 / psy_rd=0.95:0.05 / mixed_ref=1 / me_range=64 / chroma_me=1 / trellis=2 / 8x8dct=1 / cqm=0 / deadzone=21,11 / fast_pskip=0 / chroma_qp_offset=-3 / threads=12 / lookahead_threads=3 / sliced_threads=0 / nr=0 / decimate=0 / interlaced=0 / bluray_compat=0 / constrained_intra=0 / bframes=10 / b_pyramid=2 / b_adapt=2 / b_bias=0 / direct=3 / weightb=1 / open_gop=0 / weightp=2 / keyint=240 / keyint_min=23 / scenecut=40 / intra_refresh=0 / rc_lookahead=40 / rc=2pass / mbtree=0 / bitrate=8896 / ratetol=1.0 / qcomp=0.60 / qpmin=0 / qpmax=69 / qpstep=4 / cplxblur=20.0 / qblur=0.5 / vbv_maxrate=50000 / vbv_bufsize=62500 / nal_hrd=none / filler=0 / ip_ratio=1.40 / pb_ratio=1.30 / aq=1:1.00
Язык : Norwegian
Default : Да
Forced : Нет

Аудио #1
Идентификатор : 2
Формат : AC-3
Формат/Информация : Audio Coding 3
Идентификатор кодека : A_AC3
Продолжительность : 1 ч. 32 м.
Вид битрейта : Постоянный
Битрейт : 384 Кбит/сек
Каналы : 6 каналов
Расположение каналов : Front: L C R, Side: L R, LFE
Частота : 48,0 КГц
Частота кадров : 31,250 кадров/сек (1536 SPF)
Битовая глубина : 16 бит
Метод сжатия : С потерями
Размер потока : 255 Мбайт (4%)
Заголовок : iTunes
Язык : Russian
Service kind : Complete Main
Default : Да
Forced : Нет

Аудио #2
Идентификатор : 3
Формат : DTS
Формат/Информация : Digital Theater Systems
Идентификатор кодека : A_DTS
Продолжительность : 1 ч. 32 м.
Вид битрейта : Постоянный
Битрейт : 1509 Кбит/сек
Каналы : 6 каналов
Расположение каналов : Front: L C R, Side: L R, LFE
Частота : 48,0 КГц
Частота кадров : 93,750 кадра/сек (512 SPF)
Битовая глубина : 24 бит
Метод сжатия : С потерями
Размер потока : 1002 Мбайт (14%)
Язык : Norwegian
Default : Нет
Forced : Нет

Текст #1
Идентификатор : 4
Формат : UTF-8
Идентификатор кодека : S_TEXT/UTF8
Идентификатор кодека/Информация : UTF-8 Plain Text
Заголовок : Full
Язык : English
Default : Нет
Forced : Нет

Текст #2
Идентификатор : 5
Формат : UTF-8
Идентификатор кодека : S_TEXT/UTF8
Идентификатор кодека/Информация : UTF-8 Plain Text
Заголовок : Full
Язык : Norwegian
Default : Нет
Forced : Нет

Меню
00:00:00.000 : no:Chapter 01
00:04:47.000 : no:Chapter 02
00:12:54.000 : no:Chapter 03
00:20:37.333 : no:Chapter 04
00:27:40.416 : no:Chapter 05
00:32:04.125 : no:Chapter 06
00:35:06.291 : no:Chapter 07
00:41:29.041 : no:Chapter 08
00:48:02.541 : no:Chapter 09
00:53:48.291 : no:Chapter 10
01:00:37.958 : no:Chapter 11
01:06:21.958 : no:Chapter 12
01:11:04.166 : no:Chapter 13
01:14:43.625 : no:Chapter 14
01:23:58.083 : no:Chapter 15
01:29:22.708 : no:Chapter 16
Скриншоты


Релиз от: Rip by:
 

Вложения

  • 18,5 KB Просмотры: 0
    Личеров 0
    Сидеров 0
    Файлов 1
    Объем 7 GB

Привет!

Мы группа людей которые решили помочь другим в решении их проблем, а так же пользователям с поиском самых свежих и качественных инфопродуктов. За 4 с небольшим месяца мы создали этот форум на который заходят ежедневно тысячи человек и посещаемость постоянно растёт. Мы создали панель лицензирования для защиты PHP скриптов от воровства и SEO панель для мониторинга наших сайтов и выбора верной стратегии их развития. Мы надеемся что то что мы создали пригодится Вам и возможно Вы поможете нам развиваться и совершенствоваться вместе с Вами.

Статистика форума

Темы
406.605
Сообщения
465.028
Пользователи
84.389
Новый пользователь
xakki

Приложения форума для iOS и Android


У ркн там нет власти ;)
Приватные разговоры
Помощь Пользователи
    Вы не присоединились ни к одной комнате.