За последнюю неделю опубликовано 30 новых материалов.
Инструкция новичку Путеводитель по форуму Прокси для Telegram Показать подсказки , это бомба!

Скачать Скала / The Rock (1996) BDRip-HEVC 1080p от HEVC-CLUB | D, P, A бесплатно через торрент

  • Поучаствуй (в качестве покупателя) в любых пяти совместных покупках (кроме завершённых и "Моментальных") и получи группу "Новичок" навсегда -> ссылка на раздел
  • Получай до 480 рублей за каждого приглашенного пользователя!
    представляем Вам очередное расширение партнерской программы, подробности описаны тут -> ссылка
  • 90% материалов доступно к скачиванию после простой регистрации!
    Если же ты хочешь скачивать материалы без требования оставлять отзывы то получи группу "Новичок", 10 способов повышения описаны тут -> ссылка
  • К сожалению количество битых ссылок растет и мы уже не можем их оперативно восстанавливать поэтому просим помощи у каждого нашего пользователя.
    С сегодняшнего дня, за каждую восстановленную ссылку мы заплатим Вам.
    Подробнее тут -> ссылка
  • Перенесем твои заслуги с другого ресурса!
    Мы понимаем как сложно прокачивать аккаунты на форумах, вроде раскачал аккаунт, а тут появляется ресурс в 100 раз круче но тоже с системой прокачки и снова качать аккаунт...
    Предлагаем вам перенести Ваши заслуги на другом подобном ресурсе к нам.
    Подробности описаны тут -> ссылка
  • Вы можете получать по 2.5% с каждой покупки и продажи на маркете! Подробности в теме Партнёрская программа
Если Вы не хотите скачивать, Вы всегда можетепосмотретьонлайн, просто нажмите кнопку ниже :

Открыть плеер

Torrent_Bot

Торрент-Бот
Бот форума
4 Окт 2016
93
160
20


Информация о фильме
Название: Скала
Оригинальное название: The Rock
Год выхода: 1996
Жанр: Боевик, триллер, приключения
Режиссер: Майкл Бэй
В ролях: Шон Коннери, Николас Кейдж, Эд Харрис, Джон Спенсер, Дэвид Морс, Уильям Форсайт, Майкл Бин, Ванесса Марсил, Джон К. МакГинли, Грегори Спорледер, Тони Тодд, Букем Вудбайн, Джим Маниачи, Грег Коллинз, Брендан Келли, Стив Харрис, Дэнни Нуччи, Клер Форлани, Селеста Уивер, Тодд Луисо, Дэвид Бове, Ракел Крелл, Дэннис Чалкер, Маршалл Р. Тиг, Даффи Гейвер, Стив Декер, Джозеф Хоуз, Майк Марер, Карлос Сандовал, Рик Томс, Билли Дэвлин, Джек Йэтс, Хуан А. Риохас, Джозеф Патрик Келли, Инго Нойхаус, Джон Лофлин, Гарри Хемфрис, Ховард Платт, Уилли Гарсон, Джон Нэйтан, Роберт М. Ансельмо, Джек Форд, Томас Дж. Хейджбок, Дуайт Хикс, Ральф Педуто

О фильме:
Генерал элитных диверсионных спецсил США, за плечами которого опыт чуть ли не всех войн планеты, похищает со своими лучшими подчиненными ракеты со смертоносным газом и захватывает в заложники туристов в бывшей тюрьме «Алькатрас», находящейся на острове в бухте Сан-Франциско. Они требуют по миллиону долларов семьям погибших и кругленькую сумму себе. Для того, чтобы обезвредить группу, из «Алькатраса» вытаскивают британского шпиона, когда-то совершившего побег из этой тюрьмы.



Страна: США
Студия: Don Simpson/Jerry Bruckheimer Films, Hollywood Pictures
Продолжительность: 02:16:29
Перевод: Дублированный , Профессиональный (многоголосый закадровый), Авторский (одноголосый закадровый)

Файл
Кодек: HEVC x265 10 bit
Качество: BDRip-HEVC 1080p
Видео: 1920x816, 9691 Кбит/сек, 0.258 бит/(Пиксели*Кадры), 23,976 кадр/сек, HEVC ([email protected]@High) 10 бит
Звук:
1. Английский, AC3, 640 Кбит/сек, 5.1, 48,0 КГц - Оригинал
2. Русский, AC3, 640 Кбит/сек, 5.1, 48,0 КГц - Многоголосый, Карусель
3. Русский, AC3, 640 Кбит/сек, 5.1, 48,0 КГц - Дубляж, Kinоton
4. Русский, AC3, 640 Кбит/сек, 5.1, 48,0 КГц - Авторский, Гаврилов
5. Русский, AC3, 640 Кбит/сек, 5.1, 48,0 КГц - Авторский, Живов
6. Русский, AC3, 320 Кбит/сек, 2.0, 48,0 КГц - Дубляж CEE
7. Русский, AC3, 640 Кбит/сек, 5.1, 48,0 КГц - Авторский, Яроцкий
Субтитры: Русские (форсированные, полные), английские

Mediainfo
x265 [info]: frame I: 2379, Avg QP:17.86 kb/s: 22840.94
x265 [info]: frame P: 46647, Avg QP:19.35 kb/s: 17494.71
x265 [info]: frame B: 147326, Avg QP:21.58 kb/s: 7006.89
x265 [info]: Weighted P-Frames: Y:7.0% UV:5.6%
x265 [info]: Weighted B-Frames: Y:6.4% UV:4.2%
x265 [info]: consecutive B-frames: 10.9% 5.7% 8.5% 45.4% 8.6% 19.3% 1.0% 0.5% 0.1% 0.0% 0.0%

encoded 196352 frames in 447598.37s (0.44 fps), 9690.31 kb/s, Avg QP:21.01

Формат : Matroska
Версия формата : Version 4
Размер файла : 13,2 Гбайт
Продолжительность : 2 ч. 16 м.
Общий поток : 13,8 Мбит/сек
Название фильма : by Spartanec
Дата кодирования : UTC 2020-05-23 13:35:30
Программа кодирования : mkvmerge v7.0.0 ('Where We Going') 64bit built on Jun 9 2014 15:16:27
Библиотека кодирования : libebml v1.3.0 + libmatroska v1.4.1 / Lavf57.71.100
Обложка : Yes
Attachments : cover.jpg

Видео
Идентификатор : 1
Формат : HEVC
Формат/Информация : High Efficiency Video Coding
Профиль формата : Main [email protected]@High
Идентификатор кодека : V_MPEGH/ISO/HEVC
Продолжительность : 2 ч. 16 м.
Битрейт : 9691 Кбит/сек
Ширина : 1920 пикселей
Высота : 816 пикселей
Соотношение сторон : 2,35:1
Режим частоты кадров : Постоянный
Частота кадров : 23,976 (23976/1000) кадра/сек
Частота кадров в оригинале : 23,976 (24000/1001) кадра/сек
Цветовое пространство : YUV
Субдискретизация насыщенности : 4:2:0
Битовая глубина : 10 бит
Бит/(Пиксели*Кадры) : 0.258
Размер потока : 9,24 Гбайт (70%)
Заголовок : Spartanec
Библиотека кодирования : x265 3.3+4-g85d84b2af:[Windows][GCC 10.1.0][64 bit] 10bit
Настройки программы : cpuid=1111039 / frame-threads=4 / numa-pools=16 / wpp / no-pmode / no-pme / no-psnr / no-ssim / log-level=2 / input-csp=1 / input-res=1920x816 / interlace=0 / total-frames=196352 / level-idc=41 / high-tier=1 / uhd-bd=0 / ref=5 / no-allow-non-conformance / no-repeat-headers / annexb / no-aud / no-hrd / info / hash=0 / no-temporal-layers / open-gop / min-keyint=23 / keyint=240 / gop-lookahead=0 / bframes=10 / b-adapt=2 / b-pyramid / bframe-bias=0 / rc-lookahead=60 / lookahead-slices=1 / scenecut=40 / hist-scenecut=0 / radl=0 / no-splice / no-intra-refresh / ctu=32 / min-cu-size=8 / rect / amp / max-tu-size=32 / tu-inter-depth=4 / tu-intra-depth=4 / limit-tu=1 / rdoq-level=1 / dynamic-rd=0.00 / no-ssim-rd / signhide / no-tskip / nr-intra=0 / nr-inter=0 / no-constrained-intra / no-strong-intra-smoothing / max-merge=5 / limit-refs=0 / no-limit-modes / me=3 / subme=7 / merange=57 / temporal-mvp / no-frame-dup / no-hme / weightp / weightb / no-analyze-src-pics / deblock=-2:-2 / no-sao / no-sao-non-deblock / rd=6 / selective-sao=0 / no-early-skip / no-rskip / no-fast-intra / no-tskip-fast / no-cu-lossless / b-intra / no-splitrd-skip / rdpenalty=0 / psy-rd=2.00 / psy-rdoq=1.00 / no-rd-refine / no-lossless / cbqpoffs=0 / crqpoffs=0 / rc=crf / crf=20.2 / qcomp=0.70 / qpstep=4 / stats-write=0 / stats-read=0 / vbv-maxrate=50000 / vbv-bufsize=50000 / vbv-init=0.9 / crf-max=0.0 / crf-min=0.0 / ipratio=1.40 / pbratio=1.30 / aq-mode=2 / aq-strength=1.00 / no-cutree / zone-count=0 / no-strict-cbr / qg-size=32 / no-rc-grain / qpmax=69 / qpmin=0 / no-const-vbv / sar=1 / overscan=0 / videoformat=5 / range=0 / colorprim=1 / transfer=1 / colormatrix=1 / chromaloc=0 / display-window=0 / cll=0,0 / min-luma=0 / max-luma=1023 / log2-max-poc-lsb=8 / vui-timing-info / vui-hrd-info / slices=1 / no-opt-qp-pps / no-opt-ref-list-length-pps / no-multi-pass-opt-rps / scenecut-bias=0.05 / hist-threshold=0.01 / no-opt-cu-delta-qp / no-aq-motion / no-hdr10 / no-hdr10-opt / no-dhdr10-opt / no-idr-recovery-sei / analysis-reuse-level=0 / analysis-save-reuse-level=0 / analysis-load-reuse-level=0 / scale-factor=0 / refine-intra=0 / refine-inter=0 / refine-mv=0 / refine-ctu-distortion=0 / no-limit-sao / ctu-info=0 / no-lowpass-dct / refine-analysis-type=0 / copy-pic=1 / max-ausize-factor=1.0 / no-dynamic-refine / no-single-sei / no-hevc-aq / no-svt / no-field / qp-adaptation-range=1.00 / no-scenecut-aware-qpconformance-window-offsets / right=0 / bottom=0
Язык : English
Default : Да
Forced : Нет
Цветовой диапазон : Limited
Основные цвета : BT.709
Характеристики трансфера : BT.709
Коэффициенты матрицы : BT.709

Аудио #1
Идентификатор : 2
Формат : AC-3
Формат/Информация : Audio Coding 3
Коммерческое название : Dolby Digital
Идентификатор кодека : A_AC3
Продолжительность : 2 ч. 16 м.
Вид битрейта : Постоянный
Битрейт : 640 Кбит/сек
Каналы : 6 каналов
Channel layout : L R C LFE Ls Rs
Частота : 48,0 КГц
Частота кадров : 31,250 кадров/сек (1536 SPF)
Битовая глубина : 16 бит
Метод сжатия : С потерями
Размер потока : 625 Мбайт (5%)
Заголовок : Оригинал
Язык : English
ServiceKind/ : Complete Main
Default : Нет
Forced : Нет

Аудио #2
Идентификатор : 3
Формат : AC-3
Формат/Информация : Audio Coding 3
Коммерческое название : Dolby Digital
Идентификатор кодека : A_AC3
Продолжительность : 2 ч. 16 м.
Вид битрейта : Постоянный
Битрейт : 640 Кбит/сек
Каналы : 6 каналов
Channel layout : L R C LFE Ls Rs
Частота : 48,0 КГц
Частота кадров : 31,250 кадров/сек (1536 SPF)
Битовая глубина : 16 бит
Метод сжатия : С потерями
Размер потока : 625 Мбайт (5%)
Заголовок : Профессиональный многоголосый (Карусель)
Язык : Russian
ServiceKind/ : Complete Main
Default : Нет
Forced : Нет

Аудио #3
Идентификатор : 4
Формат : AC-3
Формат/Информация : Audio Coding 3
Коммерческое название : Dolby Digital
Идентификатор кодека : A_AC3
Продолжительность : 2 ч. 16 м.
Вид битрейта : Постоянный
Битрейт : 640 Кбит/сек
Каналы : 6 каналов
Channel layout : L R C LFE Ls Rs
Частота : 48,0 КГц
Частота кадров : 31,250 кадров/сек (1536 SPF)
Битовая глубина : 16 бит
Метод сжатия : С потерями
Размер потока : 625 Мбайт (5%)
Заголовок : Дубляж (Kinоton)
Язык : Russian
ServiceKind/ : Complete Main
Default : Да
Forced : Нет

Аудио #4
Идентификатор : 5
Формат : AC-3
Формат/Информация : Audio Coding 3
Коммерческое название : Dolby Digital
Идентификатор кодека : A_AC3
Продолжительность : 2 ч. 16 м.
Вид битрейта : Постоянный
Битрейт : 640 Кбит/сек
Каналы : 6 каналов
Channel layout : L R C LFE Ls Rs
Частота : 48,0 КГц
Частота кадров : 31,250 кадров/сек (1536 SPF)
Битовая глубина : 16 бит
Метод сжатия : С потерями
Размер потока : 625 Мбайт (5%)
Заголовок : Авторский Гаврилов
Язык : Russian
ServiceKind/ : Complete Main
Default : Нет
Forced : Нет

Аудио #5
Идентификатор : 6
Формат : AC-3
Формат/Информация : Audio Coding 3
Коммерческое название : Dolby Digital
Идентификатор кодека : A_AC3
Продолжительность : 2 ч. 16 м.
Вид битрейта : Постоянный
Битрейт : 640 Кбит/сек
Каналы : 6 каналов
Channel layout : L R C LFE Ls Rs
Частота : 48,0 КГц
Частота кадров : 31,250 кадров/сек (1536 SPF)
Битовая глубина : 16 бит
Метод сжатия : С потерями
Размер потока : 625 Мбайт (5%)
Заголовок : Авторский Живов
Язык : Russian
ServiceKind/ : Complete Main
Default : Нет
Forced : Нет

Аудио #6
Идентификатор : 7
Формат : AC-3
Формат/Информация : Audio Coding 3
Коммерческое название : Dolby Digital
Идентификатор кодека : A_AC3
Продолжительность : 2 ч. 16 м.
Вид битрейта : Постоянный
Битрейт : 320 Кбит/сек
Каналы : 2 канала
Channel layout : L R
Частота : 48,0 КГц
Частота кадров : 31,250 кадров/сек (1536 SPF)
Битовая глубина : 16 бит
Метод сжатия : С потерями
Размер потока : 313 Мбайт (2%)
Заголовок : Дубляж CEE
Язык : Russian
ServiceKind/ : Complete Main
Default : Нет
Forced : Нет

Аудио #7
Идентификатор : 8
Формат : AC-3
Формат/Информация : Audio Coding 3
Коммерческое название : Dolby Digital
Идентификатор кодека : A_AC3
Продолжительность : 2 ч. 16 м.
Вид битрейта : Постоянный
Битрейт : 640 Кбит/сек
Каналы : 6 каналов
Channel layout : L R C LFE Ls Rs
Частота : 48,0 КГц
Частота кадров : 31,250 кадров/сек (1536 SPF)
Битовая глубина : 16 бит
Метод сжатия : С потерями
Размер потока : 625 Мбайт (5%)
Заголовок : Авторский (М.Яроцкий (kyberpunk))
Язык : Russian
ServiceKind/: Complete Main
Default : Нет
Forced : Нет

Текст #1
Идентификатор : 9
Формат : UTF-8
Идентификатор кодека : S_TEXT/UTF8
Идентификатор кодека/Информация : UTF-8 Plain Text
Продолжительность : 1 ч. 48 м.
Битрейт : 0 бит/сек
ElementCount : 15
Размер потока : 537 байт (0%)
Заголовок : Русские форсированные
Язык : Russian
Default : Да
Forced : Нет

Текст #2
Идентификатор : 10
Формат : UTF-8
Идентификатор кодека : S_TEXT/UTF8
Идентификатор кодека/Информация : UTF-8 Plain Text
Продолжительность : 2 ч. 9 м.
Битрейт : 97 бит/сек
ElementCount : 1481
Размер потока : 92,7 Кбайт (0%)
Заголовок : Русские полные
Язык : Russian
Default : Нет
Forced : Нет

Текст #3
Идентификатор : 11
Формат : UTF-8
Идентификатор кодека : S_TEXT/UTF8
Идентификатор кодека/Информация : UTF-8 Plain Text
Продолжительность : 2 ч. 10 м.
Битрейт : 61 бит/сек
ElementCount : 1466
Размер потока : 58,6 Кбайт (0%)
Заголовок : Английские
Язык : English
Default : Нет
Forced : Нет

Текст #4
Идентификатор : 12
Формат : UTF-8
Идентификатор кодека : S_TEXT/UTF8
Идентификатор кодека/Информация : UTF-8 Plain Text
Продолжительность : 2 ч. 10 м.
Битрейт : 65 бит/сек
ElementCount : 1597
Размер потока : 62,7 Кбайт (0%)
Заголовок : Английские
Язык : English
Default : Нет
Forced : Нет

Меню
00:00:00.000 : :Chapter 01
00:00:33.241 : :Chapter 02
00:03:47.685 : :Chapter 03
00:07:55.516 : :Chapter 04
00:14:15.771 : :Chapter 05
00:16:16.475 : :Chapter 06
00:24:57.078 : :Chapter 07
00:26:44.603 : :Chapter 08
00:28:41.761 : :Chapter 09
00:39:43.631 : :Chapter 10
00:43:39.742 : :Chapter 11
00:49:39.810 : :Chapter 12
00:53:46.932 : :Chapter 13
00:55:29.242 : :Chapter 14
00:59:18.596 : :Chapter 15
01:04:45.423 : :Chapter 16
01:09:13.566 : :Chapter 17
01:14:05.399 : :Chapter 18
01:17:07.122 : :Chapter 19
01:18:45.637 : :Chapter 20
01:24:15.508 : :Chapter 21
01:28:54.954 : :Chapter 22
01:34:31.332 : :Chapter 23
01:39:52.236 : :Chapter 24
01:43:02.676 : :Chapter 25
01:46:27.547 : :Chapter 26
01:49:48.039 : :Chapter 27
01:52:59.105 : :Chapter 28
01:57:06.561 : :Chapter 29
02:00:07.700 : :Chapter 30
02:06:15.651 : :Chapter 31
02:10:08.634 : :Chapter 32
02:16:29.181 : :Chapter 33
Скриншоты

Релиз от: Spartanec
 

Вложения

  • 34 KB Просмотры: 0
    Личеров 0
    Сидеров 0
    Файлов 1
    Объем 13,2 GB

Привет!

Мы группа людей которые решили помочь другим в решении их проблем, а так же пользователям с поиском самых свежих и качественных инфопродуктов. За 4 с небольшим месяца мы создали этот форум на который заходят ежедневно тысячи человек и посещаемость постоянно растёт. Мы создали панель лицензирования для защиты PHP скриптов от воровства и SEO панель для мониторинга наших сайтов и выбора верной стратегии их развития. Мы надеемся что то что мы создали пригодится Вам и возможно Вы поможете нам развиваться и совершенствоваться вместе с Вами.

Статистика форума

Темы
406.605
Сообщения
465.028
Пользователи
84.394
Новый пользователь
millazzzzz

Приложения форума для iOS и Android


У ркн там нет власти ;)
Приватные разговоры
Помощь Пользователи
    Вы не присоединились ни к одной комнате.