За последнюю неделю опубликовано 62 новых материалов.
Инструкция новичку Путеводитель по форуму Прокси для Telegram Показать подсказки , это бомба!

Скачать Сюрприз для любимого (2014) HDTVRip от ivandubskoj бесплатно через торрент

  • Поучаствуй (в качестве покупателя) в любых пяти совместных покупках (кроме завершённых и "Моментальных") и получи группу "Новичок" навсегда -> ссылка на раздел
  • Получай до 480 рублей за каждого приглашенного пользователя!
    представляем Вам очередное расширение партнерской программы, подробности описаны тут -> ссылка
  • 90% материалов доступно к скачиванию после простой регистрации!
    Если же ты хочешь скачивать материалы без требования оставлять отзывы то получи группу "Новичок", 10 способов повышения описаны тут -> ссылка
  • К сожалению количество битых ссылок растет и мы уже не можем их оперативно восстанавливать поэтому просим помощи у каждого нашего пользователя.
    С сегодняшнего дня, за каждую восстановленную ссылку мы заплатим Вам.
    Подробнее тут -> ссылка
  • Перенесем твои заслуги с другого ресурса!
    Мы понимаем как сложно прокачивать аккаунты на форумах, вроде раскачал аккаунт, а тут появляется ресурс в 100 раз круче но тоже с системой прокачки и снова качать аккаунт...
    Предлагаем вам перенести Ваши заслуги на другом подобном ресурсе к нам.
    Подробности описаны тут -> ссылка
  • Вы можете получать по 2.5% с каждой покупки и продажи на маркете! Подробности в теме Партнёрская программа
Если Вы не хотите скачивать, Вы всегда можетепосмотретьонлайн, просто нажмите кнопку ниже :

Открыть плеер

Torrent_Bot

Торрент-Бот
Бот форума
4 Окт 2016
82
186
20
Информация о фильме
Название: Сюрприз для любимого
Оригинальное название: Сюрприз для любимого
Год выхода: 2014
Жанр: Мелодрама, экранизация
Режиссёр: Андрей Селиванов
В ролях: Анна Невская, Эдуард Трухменёв, Ирина Антоненко, Диана Енакаева, Евгения Каверау, Андрей Биланов, Михаил Ремизов, Анжелика Пашкова

О фильме: Юля - идеальная жена, домохозяйка и мать двух очаровательных девочек. Самозабвенная забота о любимом муже Алексее, маленьких дочерях и доме наполняет всю ее жизнь, и эта жизнь ее вполне устраивает. Но семейная идиллия разрушается в один момент: невольно Юля узнает о любовной связи Алексея с другой женщиной. И ее жизнь, такая отлаженная и, казалось, незыблемая, превращается в кошмар... Случайное знакомство с успешным бизнесменом Николаем помогает Юле вновь обрести себя и поверить в свои силы. Преодолевая боль от предательства мужа, Юля меняет свою жизнь и меняется сама. Теперь это ухоженная и женственная, умная и предприимчивая, успешная и уверенная в себе женщина - о такой можно только мечтать. Но любит Юля по-прежнему только Алексея, от которого ушла...



Выпущено: Россия, Кинокомпания "Русское"
Продолжительность: 01:31:17
Перевод: Не требуется

Файл
Качество: HDTVRip
Видео: XviD, 2092 Кбит/с, 720x400 (16:9), 25 кадр/с
Аудио: Русский, Dolby AC3, 48000 Гц, 192 Кбит/с, 2 канала (Стерео)



Знаете ли вы, что...
Фильм снят одноименному роману Татьяны Веденской.
MediaInfo
General
Complete name : Syurpriz.dlya.Lyubimogo.2014.HDTVRip.avi
Format : AVI
Format/Info : Audio Video Interleave
File size : 1.46 GiB
Duration : 1h 31mn
Overall bit rate : 2 292 Kbps
Movie name : Сюрприз для любимого (2014) HDTVRip
Genre : Мелодрама
Recorded date : 06.11.2014
Writing application : VirtualDubMod 1.5.10.3 (build 2550/release)
Writing library : VirtualDubMod build 2550/release
Copyright : rip by ivandubskoj

Video
ID : 0
Format : MPEG-4 Visual
Format profile : Advanced [email protected]
Format settings, BVOP : 1
Format settings, QPel : No
Format settings, GMC : No warppoints
Format settings, Matrix : Default (MPEG)
Codec ID : XVID
Codec ID/Hint : XviD
Duration : 1h 31mn
Bit rate : 2 092 Kbps
Width : 720 pixels
Height : 400 pixels
Display aspect ratio : 16:9
Frame rate : 25.000 fps
Color space : YUV
Chroma subsampling : 4:2:0
Bit depth : 8 bits
Scan type : Progressive
Compression mode : Lossy
Bits/(Pixel*Frame) : 0.291
Stream size : 1.33 GiB (91%)
Writing library : XviD 73

Audio
ID : 1
Format : AC-3
Format/Info : Audio Coding 3
Mode extension : CM (complete main)
Codec ID : 2000
Duration : 1h 31mn
Bit rate mode : Constant
Bit rate : 192 Kbps
Channel(s) : 2 channels
Channel positions : Front: L R
Sampling rate : 48.0 KHz
Bit depth : 16 bits
Compression mode : Lossy
Stream size : 125 MiB (8%)
Alignment : Split accross interleaves
Interleave, duration : 64 ms (1.60 video frames)
Interleave, preload duration : 500 ms
Title : Russian
Скриншоты


Автор рипа - ivandubskoj
 

Вложения

  • 15,7 KB Просмотры: 0
    Личеров 0
    Сидеров 0
    Файлов 1
    Объем 1,5 GB

Привет!

Мы группа людей которые решили помочь другим в решении их проблем, а так же пользователям с поиском самых свежих и качественных инфопродуктов. За 4 с небольшим месяца мы создали этот форум на который заходят ежедневно тысячи человек и посещаемость постоянно растёт. Мы создали панель лицензирования для защиты PHP скриптов от воровства и SEO панель для мониторинга наших сайтов и выбора верной стратегии их развития. Мы надеемся что то что мы создали пригодится Вам и возможно Вы поможете нам развиваться и совершенствоваться вместе с Вами.

Статистика форума

Темы
412.156
Сообщения
471.191
Пользователи
91.623
Новый пользователь
semen77bum

Приложения форума для iOS и Android


У ркн там нет власти ;)
Приватные разговоры
Помощь Пользователи
    Вы не присоединились ни к одной комнате.