За последнюю неделю опубликовано 36 новых материалов.
Инструкция новичку Путеводитель по форуму Прокси для Telegram Показать подсказки , это бомба!

Скачать Синяя радость / Blue Sunshine (1977) BDRip-AVC | L1 бесплатно через торрент

  • Поучаствуй (в качестве покупателя) в любых пяти совместных покупках (кроме завершённых и "Моментальных") и получи группу "Новичок" навсегда -> ссылка на раздел
  • Получай до 480 рублей за каждого приглашенного пользователя!
    представляем Вам очередное расширение партнерской программы, подробности описаны тут -> ссылка
  • 90% материалов доступно к скачиванию после простой регистрации!
    Если же ты хочешь скачивать материалы без требования оставлять отзывы то получи группу "Новичок", 10 способов повышения описаны тут -> ссылка
  • К сожалению количество битых ссылок растет и мы уже не можем их оперативно восстанавливать поэтому просим помощи у каждого нашего пользователя.
    С сегодняшнего дня, за каждую восстановленную ссылку мы заплатим Вам.
    Подробнее тут -> ссылка
  • Перенесем твои заслуги с другого ресурса!
    Мы понимаем как сложно прокачивать аккаунты на форумах, вроде раскачал аккаунт, а тут появляется ресурс в 100 раз круче но тоже с системой прокачки и снова качать аккаунт...
    Предлагаем вам перенести Ваши заслуги на другом подобном ресурсе к нам.
    Подробности описаны тут -> ссылка
  • Вы можете получать по 2.5% с каждой покупки и продажи на маркете! Подробности в теме Партнёрская программа
Если Вы не хотите скачивать, Вы всегда можетепосмотретьонлайн, просто нажмите кнопку ниже :

Открыть плеер

Torrent_Bot

Торрент-Бот
Бот форума
4 Окт 2016
93
160
20



Информация о фильме
Название: Синяя радость
Оригинальное название: Blue Sunshine
Год выхода: 1977
Жанр: Триллер, ужасы
Режиссер: Джефф Либерман
В ролях: Залман Кинг, Дебора Уинтерс, Марк Годдар, Роберт Уолден, Чарльз Сиберт, Энн Купер, Рэй Янг, Элис Гостли, Стефан Гираш, Ричард Кристал, Билл Адлер, Барбара Куинн, Адриана Шоу, Билл Сорреллс, Джеффри Дрюс и др.

О фильме:
Нечто странное случается с некоторыми людьми: сначала их мучают головные боли, потом они лысеют и начинают убивать окружающих. Именно это и происходит с другом Джерри Зипкина на загородный вечеринке, но по стечению обстоятельств в убийствах обвиняют самого Джерри. Теперь парню, чтобы снять с себя подозрения, приходится пуститься в бега и самому докопаться до правды.



Страна: США
Продолжительность: 01:34:49
Перевод: Любительский (одноголосый закадровый) Вадим Назаров

Файл
Кодек: x.264
Качество: BDRip-AVC | исх. BDRemux 1080р
Видео: h264 / 2400 kbps / 1024x576 / 23,976 fps
Звук: 48 kHz / 2 ch / 192 kbps
Субтитры: Нет

Релиз от: Alukard14

log
x264 [info]: frame I:1424 Avg QP:22.13 size: 68733
x264 [info]: frame P:18551 Avg QP:24.55 size: 25329
x264 [info]: frame B:116424 Avg QP:25.89 size: 9769
x264 [info]: consecutive B-frames: 5.7% 0.2% 0.3% 0.4% 0.4% 0.5% 0.7% 1.5% 0.6% 0.8% 88.9%
x264 [info]: mb I I16..4: 15.6% 73.1% 11.3%
x264 [info]: mb P I16..4: 0.9% 10.6% 0.9% P16..4: 36.8% 38.8% 9.0% 0.0% 0.0% skip: 3.0%
x264 [info]: mb B I16..4: 0.2% 1.3% 0.1% B16..8: 37.4% 15.7% 2.2% direct: 9.5% skip:33.6% L0:43.6% L1:47.8% BI: 8.6%
x264 [info]: 8x8 transform intra:80.1% inter:62.8%
x264 [info]: direct mvs spatial:98.7% temporal:1.3%
x264 [info]: coded y,uvDC,uvAC intra: 87.8% 72.7% 40.4% inter: 29.2% 24.5% 3.3%
x264 [info]: i16 v,h,dc,p: 19% 12% 17% 52%
x264 [info]: i8 v,h,dc,ddl,ddr,vr,hd,vl,hu: 7% 6% 6% 11% 16% 14% 14% 12% 14%
x264 [info]: i4 v,h,dc,ddl,ddr,vr,hd,vl,hu: 10% 7% 4% 9% 15% 15% 14% 12% 14%
x264 [info]: i8c dc,h,v,p: 36% 26% 20% 17%
x264 [info]: Weighted P-Frames: Y:8.4% UV:2.1%
x264 [info]: ref P L0: 37.5% 7.7% 21.8% 7.6% 7.4% 4.6% 4.9% 2.0% 2.2% 1.6% 1.8% 0.8% 0.0%
x264 [info]: ref B L0: 65.5% 15.4% 7.0% 3.9% 2.6% 2.2% 1.7% 1.0% 0.5% 0.1%
x264 [info]: ref B L1: 90.5% 9.5%
x264 [info]: kb/s:2397.75
MediaInfo
Общее
Уникальный идентификатор : 171365190647759235443378690048773954753 (0x80EBBC36AF27DA8EBD505D6203119CC1)
Полное имя : E:TestBlue.Sunshine.1977.BDRip-AVC.by.Alukard14.mkv
Формат : Matroska
Версия формата : Version 2
Размер файла : 1,72 Гбайт
Продолжительность : 1 ч. 34 м.
Общий поток : 2591 Кбит/сек
Название фильма : Blue.Shunshine.1977.BDRemux.1080p-porvaliparus
Дата кодирования : UTC 2019-06-04 07:55:27
Программа кодирования : mkvmerge v4.1.1 ('Bouncin' Back') сборка от Jul 3 2010 22:54:08
Библиотека кодирования : libebml v1.0.0 + libmatroska v1.0.0

Видео
Идентификатор : 1
Формат : AVC
Формат/Информация : Advanced Video Codec
Профиль формата : [email protected]
Настройки формата : CABAC / 11 Ref Frames
Параметр CABAC формата : Да
Параметр RefFrames формата : 11 кадров
Идентификатор кодека : V_MPEG4/ISO/AVC
Продолжительность : 1 ч. 34 м.
Битрейт : 2400 Кбит/сек
Ширина : 1024 пикселя
Высота : 576 пикселей
Соотношение сторон : 16:9
Режим частоты кадров : Постоянный
Частота кадров : 23,976 кадра/сек
Цветовое пространство : YUV
Субдискретизация насыщенности : 4:2:0
Битовая глубина : 8 бит
Тип развёртки : Прогрессивная
Бит/(Пиксели*Кадры) : 0.170
Размер потока : 1,55 Гбайт (91%)
Библиотека кодирования : x264 core 148 r2638 7599210
Настройки программы : cabac=1 / ref=11 / deblock=1:-3:-3 / analyse=0x3:0x113 / me=umh / subme=11 / psy=1 / psy_rd=1.00:0.50 / mixed_ref=1 / me_range=48 / chroma_me=1 / trellis=2 / 8x8dct=1 / cqm=0 / deadzone=21,11 / fast_pskip=0 / chroma_qp_offset=-4 / threads=9 / lookahead_threads=1 / sliced_threads=0 / nr=0 / decimate=0 / interlaced=0 / bluray_compat=0 / constrained_intra=0 / bframes=10 / b_pyramid=2 / b_adapt=0 / b_bias=0 / direct=3 / weightb=1 / open_gop=0 / weightp=2 / keyint=240 / keyint_min=24 / scenecut=40 / intra_refresh=0 / rc_lookahead=40 / rc=2pass / mbtree=0 / bitrate=2400 / ratetol=1.0 / qcomp=0.60 / qpmin=0 / qpmax=69 / qpstep=2 / cplxblur=20.0 / qblur=0.5 / vbv_maxrate=14000 / vbv_bufsize=14000 / nal_hrd=none / filler=0 / ip_ratio=1.40 / pb_ratio=1.30 / aq=1:1.00
Default : Да
Forced : Нет

Аудио
Идентификатор : 2
Формат : AC-3
Формат/Информация : Audio Coding 3
Режим смешивания : Header stripping
Идентификатор кодека : A_AC3
Продолжительность : 1 ч. 34 м.
Вид битрейта : Постоянный
Битрейт : 192 Кбит/сек
Каналы : 2 канала
Расположение каналов : Front: L R
Частота : 48,0 КГц
Частота кадров : 31,250 кадров/сек (1536 SPF)
Битовая глубина : 16 бит
Метод сжатия : С потерями
Размер потока : 130 Мбайт (7%)
Default : Да
Forced : Нет

Меню
00:07:21.107 : en:Глава 01
00:00:00.000 : en:Глава 02
00:11:46.414 : en:Глава 03
00:17:54.990 : en:Глава 04
00:20:26.391 : en:Глава 05
00:24:24.754 : en:Глава 06
00:26:56.990 : en:Глава 07
00:29:44.616 : en:Глава 08
00:36:33.191 : en:Глава 09
00:38:00.820 : en:Глава 10
00:43:15.759 : en:Глава 11
00:45:49.079 : en:Глава 12
00:48:11.805 : en:Глава 13
00:54:10.455 : en:Глава 14
00:57:09.843 : en:Глава 15
01:07:28.502 : en:Глава 16
01:09:57.401 : en:Глава 17
00:12:50.991 : en:Глава 18
01:13:51.718 : en:Глава 19
01:16:56.570 : en:Глава 20
01:27:44.884 : en:Глава 21
01:33:04.620 : en:Глава 22
Скриншоты
 

Вложения

  • 18,1 KB Просмотры: 1
    Личеров 0
    Сидеров 0
    Файлов 1
    Объем 1,7 GB

Привет!

Мы группа людей которые решили помочь другим в решении их проблем, а так же пользователям с поиском самых свежих и качественных инфопродуктов. За 4 с небольшим месяца мы создали этот форум на который заходят ежедневно тысячи человек и посещаемость постоянно растёт. Мы создали панель лицензирования для защиты PHP скриптов от воровства и SEO панель для мониторинга наших сайтов и выбора верной стратегии их развития. Мы надеемся что то что мы создали пригодится Вам и возможно Вы поможете нам развиваться и совершенствоваться вместе с Вами.

Статистика форума

Темы
406.612
Сообщения
465.046
Пользователи
84.400
Новый пользователь
Khielgha

Приложения форума для iOS и Android


У ркн там нет власти ;)
Приватные разговоры
Помощь Пользователи
    Вы не присоединились ни к одной комнате.