За последнюю неделю опубликовано 35 новых материалов.
Инструкция новичку Путеводитель по форуму Прокси для Telegram Показать подсказки , это бомба!

Скачать Синг-Синг / Sing Sing (1983) BDRemux 1080p | P, A бесплатно через торрент

  • Поучаствуй (в качестве покупателя) в любых пяти совместных покупках (кроме завершённых и "Моментальных") и получи группу "Новичок" навсегда -> ссылка на раздел
  • Получай до 480 рублей за каждого приглашенного пользователя!
    представляем Вам очередное расширение партнерской программы, подробности описаны тут -> ссылка
  • 90% материалов доступно к скачиванию после простой регистрации!
    Если же ты хочешь скачивать материалы без требования оставлять отзывы то получи группу "Новичок", 10 способов повышения описаны тут -> ссылка
  • К сожалению количество битых ссылок растет и мы уже не можем их оперативно восстанавливать поэтому просим помощи у каждого нашего пользователя.
    С сегодняшнего дня, за каждую восстановленную ссылку мы заплатим Вам.
    Подробнее тут -> ссылка
  • Перенесем твои заслуги с другого ресурса!
    Мы понимаем как сложно прокачивать аккаунты на форумах, вроде раскачал аккаунт, а тут появляется ресурс в 100 раз круче но тоже с системой прокачки и снова качать аккаунт...
    Предлагаем вам перенести Ваши заслуги на другом подобном ресурсе к нам.
    Подробности описаны тут -> ссылка
  • Вы можете получать по 2.5% с каждой покупки и продажи на маркете! Подробности в теме Партнёрская программа
Если Вы не хотите скачивать, Вы всегда можетепосмотретьонлайн, просто нажмите кнопку ниже :

Открыть плеер

Torrent_Bot

Торрент-Бот
Бот форума
4 Окт 2016
93
160
20

Информация о фильме
Название: Синг-Синг
Оригинальное название: Sing Sing
Год выпуска: 1983
Жанр: Комедия
Режиссер: Серджио Корбуччи
В ролях: Адриано Челентано, Энрико Монтесано, Марина Сума, Франко Джакобини, Анджела Гудвин, Джанни Мина.

Описание:
Две истории в одном фильме.
Эдуардо случайно узнает, что у него приемные родители. Его настоящий отец, барон, умирает, но перед смертью сообщает, что матерью Эдуардо была "Королева Английская", не успев уточнить, что это прозвище итальянской проститутки. И вот Эдуардо уже несется в столицу Англии, где правит ничего не подозревающая королева...
Вторая история является пародией на очень популярный в 70-х киножанр "джиалло" (итальянский триллер-детектив.) Детектив Богги решил завершить свою карьеру полицейского, взявшись за дело, в котором он должен оградить актрису Линду от посягательств маньяка, который беспокоил ее телефонными звонками с угрозами.



Страна: Италия / Intercapital
Продолжительность: 01:54:41
Перевод: Многоголосый профессиональный, авторский
Субтитры: Отсутствуют

Файл
Формат: Matroska
Качество: BDRemux 1080p
Видео: MPEG-4 AVC, ~30 Mбит/с, 1920x1080
Аудио 1: AC3, 2 ch, 192 Kbps, 48.0 kHz – Русский MVO, Позитив
Аудио 2: AC3, 2 ch, 192 Kbps, 48.0 kHz – Русский MVO, СТС
Аудио 3: AC3, 2 ch, 192 Kbps, 48.0 kHz – Русский AVO, Ю. Немахов
Аудио 4: FLAC, 2 ch, 310 Kbps, 48.0 kHz – Итальянский

M/I
General
General
Complete name : Синг Синг [Sing sing.1983].mkv
Format : Matroska
Format version : Version 4
File size : 24.5 GiB
Duration : 1 h 54 min
Overall bit rate mode : Variable
Overall bit rate : 30.6 Mb/s
Encoded date : UTC 2019-05-24 16:23:48
Writing application : mkvmerge v34.0.0 ('Sight and Seen') 64-bit
Writing library : libebml v1.3.7 + libmatroska v1.5.0
IsTruncated : Yes

Video
ID : 1
Format : AVC
Format/Info : Advanced Video Codec
Format profile : [email protected]
Format settings : CABAC / 3 Ref Frames
Format settings, CABAC : Yes
Format settings, Reference : 3 frames
Codec ID : V_MPEG4/ISO/AVC
Duration : 1 h 54 min
Bit rate mode : Variable
Maximum bit rate : 30.0 Mb/s
Width : 1 920 pixels
Height : 1 080 pixels
Display aspect ratio : 16:9
Frame rate mode : Constant
Frame rate : 23.976 (24000/1001) FPS
Standard : NTSC
Color space : YUV
Chroma subsampling : 4:2:0
Bit depth : 8 bits
Scan type : Progressive
Writing library : x264pro - Adobe CS Exporter Plug-in
Encoding settings : cabac=1 / ref=4 / deblock=1:-2:-2 / analyse=0x3:0x113 / me=umh / subme=9 / psy=1 / psy_rd=1.00:0.25 / mixed_ref=1 / me_range=16 / chroma_me=1 / trellis=1 / 8x8dct=1 / cqm=0 / deadzone=6,6 / fast_pskip=1 / chroma_qp_offset=-4 / threads=16 / lookahead_threads=2 / sliced_threads=0 / slices=4 / nr=0 / decimate=0 / interlaced=0 / bluray_compat=1 / constrained_intra=0 / bframes=3 / b_pyramid=1 / b_adapt=2 / b_bias=0 / direct=3 / weightb=1 / open_gop=0 / weightp=1 / keyint=24 / keyint_min=1 / scenecut=40 / intra_refresh=0 / rc_lookahead=24 / rc=crf / mbtree=1 / crf=1.0 / qcomp=0.80 / qpmin=0 / qpmax=69 / qpstep=4 / vbv_maxrate=30000 / vbv_bufsize=30000 / crf_max=0.0 / nal_hrd=vbr / ip_ratio=1.10 / aq=1:0.50
Default : Yes
Forced : No
Color range : Limited
Color primaries : BT.709
Transfer characteristics : BT.709
Matrix coefficients : BT.709

Audio #1
ID : 2
Format : AC-3
Format/Info : Audio Coding 3
Commercial name : Dolby Digital
Codec ID : A_AC3
Duration : 1 h 54 min
Bit rate mode : Constant
Bit rate : 192 kb/s
Channel(s) : 2 channels
Channel layout : L R
Sampling rate : 48.0 kHz
Frame rate : 31.250 FPS (1536 SPF)
Compression mode : Lossy
Stream size : 158 MiB (1%)
Title : Позитив
Language : Russian
Service kind : Complete Main
Default : Yes
Forced : No

Audio #2
ID : 3
Format : AC-3
Format/Info : Audio Coding 3
Commercial name : Dolby Digital
Codec ID : A_AC3
Duration : 1 h 54 min
Bit rate mode : Constant
Bit rate : 192 kb/s
Channel(s) : 2 channels
Channel layout : L R
Sampling rate : 48.0 kHz
Frame rate : 31.250 FPS (1536 SPF)
Compression mode : Lossy
Stream size : 158 MiB (1%)
Title : СТС
Language : Russian
Service kind : Complete Main
Default : No
Forced : No

Audio #3
ID : 4
Format : AC-3
Format/Info : Audio Coding 3
Commercial name : Dolby Digital
Codec ID : A_AC3
Duration : 1 h 54 min
Bit rate mode : Constant
Bit rate : 192 kb/s
Channel(s) : 2 channels
Channel layout : L R
Sampling rate : 48.0 kHz
Frame rate : 31.250 FPS (1536 SPF)
Compression mode : Lossy
Stream size : 158 MiB (1%)
Title : Ю. Немахов
Language : Russian
Service kind : Complete Main
Default : No
Forced : No

Audio #4
ID : 5
Format : FLAC
Format/Info : Free Lossless Audio Codec
Codec ID : A_FLAC
Duration : 1 h 54 min
Bit rate mode : Variable
Channel(s) : 2 channels
Channel layout : L R
Sampling rate : 48.0 kHz
Bit depth : 16 bits
Compression mode : Lossless
Title : Original IT Flac 2.0
Writing library : libFLAC 1.2.1 (UTC 2007-09-17)
Language : Italian
Default : No
Forced : No

Menu
00:00:00.000 : de:SCHLECHTES ENDE
00:07:17.186 : de:EIN JUNGE
00:10:16.282 : de:WAHRHEITEN
00:17:02.604 : de:VATER UND MUTTER
00:25:06.046 : de:AUF DER SUCHE
00:42:06.565 : de:DAS ATTENTAT
00:51:02.559 : de:IHRE MAJESTAT
01:02:27.618 : de:HARTER FALL
01:07:54.278 : de:ANONYMER ANRUFER
01:11:47.928 : de:SPEZIALEINHEIT
01:18:07.557 : de:BODYGUARD
01:27:53.351 : de:STORENFRIED
01:33:55.379 : de:pOLDI
01:40:42.661 : de:FALSCHES SPIEL
01:47:08.964 : de:LIEBESERKLARUNG
01:52:50.346 : de:ABSPANN
Доп. информация:
За образ немецкого диска Спасибо frodofm, за дорожку Позитив xfiles, за СТС miha2154. Навигация по главам
Скриншоты
 

Вложения

  • 124,5 KB Просмотры: 0
    Личеров 0
    Сидеров 0
    Файлов 1
    Объем 24,7 GB

Привет!

Мы группа людей которые решили помочь другим в решении их проблем, а так же пользователям с поиском самых свежих и качественных инфопродуктов. За 4 с небольшим месяца мы создали этот форум на который заходят ежедневно тысячи человек и посещаемость постоянно растёт. Мы создали панель лицензирования для защиты PHP скриптов от воровства и SEO панель для мониторинга наших сайтов и выбора верной стратегии их развития. Мы надеемся что то что мы создали пригодится Вам и возможно Вы поможете нам развиваться и совершенствоваться вместе с Вами.

Статистика форума

Темы
406.601
Сообщения
464.985
Пользователи
84.246
Новый пользователь
Jacksn

Приложения форума для iOS и Android


У ркн там нет власти ;)
Приватные разговоры
Помощь Пользователи
    Вы не присоединились ни к одной комнате.