За последнюю неделю опубликовано 38 новых материалов.
Инструкция новичку Путеводитель по форуму Прокси для Telegram Показать подсказки , это бомба!

Скачать Сильнее / Stronger (2017) BDRip 1080p | P, iTunes бесплатно через торрент

  • Поучаствуй (в качестве покупателя) в любых пяти совместных покупках (кроме завершённых и "Моментальных") и получи группу "Новичок" навсегда -> ссылка на раздел
  • Получай до 480 рублей за каждого приглашенного пользователя!
    представляем Вам очередное расширение партнерской программы, подробности описаны тут -> ссылка
  • 90% материалов доступно к скачиванию после простой регистрации!
    Если же ты хочешь скачивать материалы без требования оставлять отзывы то получи группу "Новичок", 10 способов повышения описаны тут -> ссылка
  • К сожалению количество битых ссылок растет и мы уже не можем их оперативно восстанавливать поэтому просим помощи у каждого нашего пользователя.
    С сегодняшнего дня, за каждую восстановленную ссылку мы заплатим Вам.
    Подробнее тут -> ссылка
  • Перенесем твои заслуги с другого ресурса!
    Мы понимаем как сложно прокачивать аккаунты на форумах, вроде раскачал аккаунт, а тут появляется ресурс в 100 раз круче но тоже с системой прокачки и снова качать аккаунт...
    Предлагаем вам перенести Ваши заслуги на другом подобном ресурсе к нам.
    Подробности описаны тут -> ссылка
  • Вы можете получать по 2.5% с каждой покупки и продажи на маркете! Подробности в теме Партнёрская программа
Если Вы не хотите скачивать, Вы всегда можетепосмотретьонлайн, просто нажмите кнопку ниже :

Открыть плеер

Torrent_Bot

Торрент-Бот
Бот форума
4 Окт 2016
93
160
20
Сильнее / Stronger

Страна: США
Производство: Bold Films, Lionsgate, Mandeville Films, Nine Stories Productions
Год выпуска: 2017
Жанр:драма, биография
Продолжительность: 01:58:54

Режиссер: Дэвид Гордон Грин
Авторы сценария: Джон Поллоно, Джефф Бауман, Брэт Уиттер

В ролях: Джейк Джилленхол, Татьяна Маслани, Миранда Ричардсон, Рик Лэйн, Нэйт Ричман, Ленни Кларк, Патти О’Нил, Клэнси Браун

Описание: История Джеффа Баумана, одного из участников трагических событий на Бостонском марафоне в 2013 году, лишившегося в результате взрывов обеих ног...



Перевод: Профессиональный (многоголосый, закадровый) | Jaskier + Профессиональный (одноголосый) | iTunes
Субтитры: русские, английские


Качество: BDRip 1080p
Формат: МКV
Видео кодек: AVC
Аудио кодек: АС3 | DTS
Видео: 1920x804 (2.40:1), 23.976 fps, MPEG-4 AVC ~15.6 Мbps avg
Аудио №1: 48.0 kHz, AC3 Dolby Digital, 3/2 (L,C,R,l,r) + LFE ch, ~640 kbps | RUS / МVO / Jaskier
Аудио №2: 48.0 kHz, AC3 Dolby Digital, 3/2 (L,C,R,l,r) + LFE ch, ~384 kbps | RUS / VO / iTunes
Аудио №3: 48.0 kHz, Digital Theater Systems, 3/2 (L,C,R,l,r) + LFE ch, ~1509 kbps / 24 bits | ENG
Формат субтитров: UTF-8 Plain Text

Дата премьеры (мир): 8 сентября 2017



Дополнительная информация: ВНИМАНИЕ! в субтитрах присутствует ненормативная лексика!
Media Info
General
Unique ID : 236415167085061721319925786331130300244 (0xB1DBE7AB6F67BDA8C6D0F687182B0754)
Complete name : Stronger.2017.BDRip.1080p.mkv
Format : Matroska
Format version : Version 4 / Version 2
File size : 15.0 GiB
Duration : 1 h 58 min
Overall bit rate : 18.1 Mb/s
Encoded date : UTC 2018-09-04 13:31:43
Writing application : mkvmerge v20.0.0 ('I Am The Sun') 64-bit
Writing library : libebml v1.3.5 + libmatroska v1.4.8

Video
ID : 1
Format : AVC
Format/Info : Advanced Video Codec
Format profile : [email protected]
Format settings : CABAC / 5 Ref Frames
Format settings, CABAC : Yes
Format settings, RefFrames : 5 frames
Codec ID : V_MPEG4/ISO/AVC
Duration : 1 h 58 min
Bit rate : 15.6 Mb/s
Width : 1 920 pixels
Height : 804 pixels
Display aspect ratio : 2.40:1
Frame rate mode : Constant
Frame rate : 23.976 (24000/1001) FPS
Color space : YUV
Chroma subsampling : 4:2:0
Bit depth : 8 bits
Scan type : Progressive
Bits/(Pixel*Frame) : 0.421
Stream size : 12.9 GiB (86%)
Writing library : x264 core 152 r2851 ba24899
Encoding settings : cabac=1 / ref=5 / deblock=1:-3:-3 / analyse=0x3:0x133 / me=umh / subme=10 / psy=1 / psy_rd=1.05:0.00 / mixed_ref=1 / me_range=64 / chroma_me=1 / trellis=2 / 8x8dct=1 / cqm=0 / deadzone=21,11 / fast_pskip=0 / chroma_qp_offset=-2 / threads=12 / lookahead_threads=2 / sliced_threads=0 / nr=0 / decimate=0 / interlaced=0 / bluray_compat=0 / constrained_intra=0 / bframes=9 / b_pyramid=2 / b_adapt=2 / b_bias=0 / direct=3 / weightb=1 / open_gop=0 / weightp=2 / keyint=250 / keyint_min=23 / scenecut=40 / intra_refresh=0 / rc_lookahead=60 / rc=crf / mbtree=0 / crf=19.5 / qcomp=0.65 / qpmin=0 / qpmax=69 / qpstep=4 / vbv_maxrate=62500 / vbv_bufsize=78125 / crf_max=0.0 / nal_hrd=none / filler=0 / ip_ratio=1.25 / pb_ratio=1.15 / aq=3:0.80 / zones=0,279,crf=18/463,1265,crf=18/4362,4402,crf=18.1/52014,52068,crf=18.4/52328,52655,crf=18.4/72609,73412,crf=18/75613,75757,crf=18/78906,82515,crf=18/104429,105003,crf=18.4/158651,158684,crf=18.4/162273,171046,crf=22
Language : English
Default : Yes
Forced : No

Audio #1
ID : 2
Format : AC-3
Format/Info : Audio Coding 3
Codec ID : A_AC3
Duration : 1 h 58 min
Bit rate mode : Constant
Bit rate : 640 kb/s
Channel(s) : 6 channels
Channel positions : Front: L C R, Side: L R, LFE
Sampling rate : 48.0 kHz
Frame rate : 31.250 FPS (1536 SPF)
Bit depth : 16 bits
Compression mode : Lossy
Stream size : 544 MiB (4%)
Title : Jaskier
Language : Russian
Service kind : Complete Main
Default : Yes
Forced : No

Audio #2
ID : 3
Format : AC-3
Format/Info : Audio Coding 3
Codec ID : A_AC3
Duration : 1 h 58 min
Bit rate mode : Constant
Bit rate : 384 kb/s
Channel(s) : 6 channels
Channel positions : Front: L C R, Side: L R, LFE
Sampling rate : 48.0 kHz
Frame rate : 31.250 FPS (1536 SPF)
Bit depth : 16 bits
Compression mode : Lossy
Stream size : 326 MiB (2%)
Title : iTunes
Language : Russian
Service kind : Complete Main
Default : No
Forced : No

Audio #3
ID : 4
Format : DTS
Format/Info : Digital Theater Systems
Codec ID : A_DTS
Duration : 1 h 58 min
Bit rate mode : Constant
Bit rate : 1 509 kb/s
Channel(s) : 6 channels
Channel positions : Front: L C R, Side: L R, LFE
Sampling rate : 48.0 kHz
Frame rate : 93.750 FPS (512 SPF)
Bit depth : 24 bits
Compression mode : Lossy
Stream size : 1.25 GiB (8%)
Language : English
Default : No
Forced : No

Text #1
ID : 5
Format : UTF-8
Codec ID : S_TEXT/UTF8
Codec ID/Info : UTF-8 Plain Text
Duration : 1 h 51 min
Bit rate : 113 b/s
Count of elements : 1980
Stream size : 93.3 KiB (0%)
Language : Russian
Default : No
Forced : No

Text #2
ID : 6
Format : UTF-8
Codec ID : S_TEXT/UTF8
Codec ID/Info : UTF-8 Plain Text
Duration : 1 h 51 min
Bit rate : 71 b/s
Count of elements : 2011
Stream size : 58.1 KiB (0%)
Language : English
Default : No
Forced : No

Menu
00:00:00.000 : en:00:00:00.000
00:07:32.827 : en:00:07:32.827
00:15:35.935 : en:00:15:35.935
00:23:41.587 : en:00:23:41.587
00:32:34.536 : en:00:32:34.536
00:40:17.415 : en:00:40:17.415
00:46:39.088 : en:00:46:39.088
00:53:56.650 : en:00:53:56.650
01:00:09.731 : en:01:00:09.731
01:06:37.994 : en:01:06:37.994
01:11:42.924 : en:01:11:42.924
01:20:15.978 : en:01:20:15.978
01:31:28.483 : en:01:31:28.483
01:37:09.449 : en:01:37:09.449
01:45:33.661 : en:01:45:33.661
01:52:40.587 : en:01:52:40.587
Скриншоты
 

Вложения

  • 76,1 KB Просмотры: 1
    Личеров 0
    Сидеров 0
    Файлов 1
    Объем 15 GB

Привет!

Мы группа людей которые решили помочь другим в решении их проблем, а так же пользователям с поиском самых свежих и качественных инфопродуктов. За 4 с небольшим месяца мы создали этот форум на который заходят ежедневно тысячи человек и посещаемость постоянно растёт. Мы создали панель лицензирования для защиты PHP скриптов от воровства и SEO панель для мониторинга наших сайтов и выбора верной стратегии их развития. Мы надеемся что то что мы создали пригодится Вам и возможно Вы поможете нам развиваться и совершенствоваться вместе с Вами.

Статистика форума

Темы
406.605
Сообщения
465.007
Пользователи
84.313
Новый пользователь
сергей21212

Приложения форума для iOS и Android


У ркн там нет власти ;)
Приватные разговоры
Помощь Пользователи
    Вы не присоединились ни к одной комнате.