За последнюю неделю опубликовано 35 новых материалов.
Инструкция новичку Путеводитель по форуму Прокси для Telegram Показать подсказки , это бомба!

Скачать Сильнее / Stronger (2017) BDRemux 1080p | P, iTunes бесплатно через торрент

  • Поучаствуй (в качестве покупателя) в любых пяти совместных покупках (кроме завершённых и "Моментальных") и получи группу "Новичок" навсегда -> ссылка на раздел
  • Получай до 480 рублей за каждого приглашенного пользователя!
    представляем Вам очередное расширение партнерской программы, подробности описаны тут -> ссылка
  • 90% материалов доступно к скачиванию после простой регистрации!
    Если же ты хочешь скачивать материалы без требования оставлять отзывы то получи группу "Новичок", 10 способов повышения описаны тут -> ссылка
  • К сожалению количество битых ссылок растет и мы уже не можем их оперативно восстанавливать поэтому просим помощи у каждого нашего пользователя.
    С сегодняшнего дня, за каждую восстановленную ссылку мы заплатим Вам.
    Подробнее тут -> ссылка
  • Перенесем твои заслуги с другого ресурса!
    Мы понимаем как сложно прокачивать аккаунты на форумах, вроде раскачал аккаунт, а тут появляется ресурс в 100 раз круче но тоже с системой прокачки и снова качать аккаунт...
    Предлагаем вам перенести Ваши заслуги на другом подобном ресурсе к нам.
    Подробности описаны тут -> ссылка
  • Вы можете получать по 2.5% с каждой покупки и продажи на маркете! Подробности в теме Партнёрская программа
Если Вы не хотите скачивать, Вы всегда можетепосмотретьонлайн, просто нажмите кнопку ниже :

Открыть плеер

Torrent_Bot

Торрент-Бот
Бот форума
4 Окт 2016
94
155
20
Сильнее / Stronger

Страна: США
Производство: Bold Films, Lionsgate, Mandeville Films, Nine Stories Productions
Год выпуска: 2017
Жанр:драма, биография
Продолжительность: 01:58:54

Режиссер: Дэвид Гордон Грин
Авторы сценария: Джон Поллоно, Джефф Бауман, Брэт Уиттер

В ролях: Джейк Джилленхол, Татьяна Маслани, Миранда Ричардсон, Рик Лэйн, Нэйт Ричман, Ленни Кларк, Патти О’Нил, Клэнси Браун

Описание: История Джеффа Баумана, одного из участников трагических событий на Бостонском марафоне в 2013 году, лишившегося в результате взрывов обеих ног...



Перевод: Профессиональный (многоголосый, закадровый) | Jaskier + Профессиональный (одноголосый) | iTunes
Субтитры: русские, английские


Качество: BDRemux 1080p
Формат: МКV
Видео кодек: AVC
Аудио кодек: АС3 | DTS-МА
Видео: 1920x1080 (16:9), 23.976 fps, MPEG-4 AVC ~25.0 Мbps avg
Аудио №1: 48.0 kHz, AC3 Dolby Digital, 3/2 (L,C,R,l,r) + LFE ch, ~640 kbps | RUS / МVO / Jaskier
Аудио №2: 48.0 kHz, AC3 Dolby Digital, 3/2 (L,C,R,l,r) + LFE ch, ~384 kbps | RUS / VO / iTunes
Аудио №3: 48.0 kHz, Digital Theater Systems Master Audio, 3/2 (L,C,R,l,r) + LFE ch, ~3249 kbps / 24 bits | ENG
Формат субтитров: UTF-8 Plain Text

Дата премьеры (мир): 8 сентября 2017



Дополнительная информация: ВНИМАНИЕ! в субтитрах присутствует ненормативная лексика!
BDRemux Info
General
Unique ID : 147161765521588645273505759258441912686 (0x6EB653390334B94CA88FB4BA4C0F916E)
Complete name : Stronger.2017.REMUX.mkv
Format : Matroska
Format version : Version 4 / Version 2
File size : 24.3 GiB
Duration : 1 h 58 min
Overall bit rate mode : Variable
Overall bit rate : 29.3 Mb/s
Encoded date : UTC 2018-09-04 11:31:06
Writing application : mkvmerge v20.0.0 ('I Am The Sun') 64-bit
Writing library : libebml v1.3.5 + libmatroska v1.4.8

Video
ID : 1
Format : AVC
Format/Info : Advanced Video Codec
Format profile : High@L4.1
Format settings : CABAC / 4 Ref Frames
Format settings, CABAC : Yes
Format settings, RefFrames : 4 frames
Codec ID : V_MPEG4/ISO/AVC
Duration : 1 h 58 min
Bit rate mode : Variable
Bit rate : 25.0 Mb/s
Maximum bit rate : 35.0 Mb/s
Width : 1 920 pixels
Height : 1 080 pixels
Display aspect ratio : 16:9
Frame rate mode : Constant
Frame rate : 23.976 (24000/1001) FPS
Standard : NTSC
Color space : YUV
Chroma subsampling : 4:2:0
Bit depth : 8 bits
Scan type : Progressive
Bits/(Pixel*Frame) : 0.503
Stream size : 20.8 GiB (85%)
Language : English
Default : Yes
Forced : No
Color range : Limited
Color primaries : BT.709
Transfer characteristics : BT.709
Matrix coefficients : BT.709

Audio #1
ID : 2
Format : AC-3
Format/Info : Audio Coding 3
Codec ID : A_AC3
Duration : 1 h 58 min
Bit rate mode : Constant
Bit rate : 640 kb/s
Channel(s) : 6 channels
Channel positions : Front: L C R, Side: L R, LFE
Sampling rate : 48.0 kHz
Frame rate : 31.250 FPS (1536 SPF)
Bit depth : 16 bits
Compression mode : Lossy
Stream size : 544 MiB (2%)
Title : Jaskier
Language : Russian
Service kind : Complete Main
Default : Yes
Forced : No

Audio #2
ID : 3
Format : AC-3
Format/Info : Audio Coding 3
Codec ID : A_AC3
Duration : 1 h 58 min
Bit rate mode : Constant
Bit rate : 384 kb/s
Channel(s) : 6 channels
Channel positions : Front: L C R, Side: L R, LFE
Sampling rate : 48.0 kHz
Frame rate : 31.250 FPS (1536 SPF)
Bit depth : 16 bits
Compression mode : Lossy
Stream size : 326 MiB (1%)
Title : iTunes
Language : Russian
Service kind : Complete Main
Default : No
Forced : No

Audio #3
ID : 4
Format : DTS
Format/Info : Digital Theater Systems
Format profile : MA / Core
Codec ID : A_DTS
Duration : 1 h 58 min
Bit rate mode : Variable / Constant
Bit rate : 3 249 kb/s / 1 509 kb/s
Channel(s) : 6 channels
Channel positions : Front: L C R, Side: L R, LFE
Sampling rate : 48.0 kHz
Frame rate : 93.750 FPS (512 SPF)
Bit depth : 24 bits
Compression mode : Lossless / Lossy
Stream size : 2.70 GiB (11%)
Language : English
Default : No
Forced : No

Text #1
ID : 5
Format : UTF-8
Codec ID : S_TEXT/UTF8
Codec ID/Info : UTF-8 Plain Text
Duration : 1 h 51 min
Bit rate : 113 b/s
Count of elements : 1980
Stream size : 93.3 KiB (0%)
Language : Russian
Default : No
Forced : No

Text #2
ID : 6
Format : UTF-8
Codec ID : S_TEXT/UTF8
Codec ID/Info : UTF-8 Plain Text
Duration : 1 h 51 min
Bit rate : 71 b/s
Count of elements : 2011
Stream size : 58.1 KiB (0%)
Language : English
Default : No
Forced : No

Menu
00:00:00.000 : en:Chapter 01
00:07:32.827 : en:Chapter 02
00:15:35.935 : en:Chapter 03
00:23:41.586 : en:Chapter 04
00:32:34.410 : en:Chapter 05
00:40:17.039 : en:Chapter 06
00:46:39.087 : en:Chapter 07
00:53:56.650 : en:Chapter 08
01:00:09.480 : en:Chapter 09
01:06:37.743 : en:Chapter 10
01:11:42.756 : en:Chapter 11
01:20:15.977 : en:Chapter 12
01:31:28.441 : en:Chapter 13
01:37:09.365 : en:Chapter 14
01:45:33.535 : en:Chapter 15
01:52:40.587 : en:Chapter 16
Скриншоты
 

Вложения

  • 122,5 KB Просмотры: 1
    Личеров 0
    Сидеров 0
    Файлов 1
    Объем 24,3 GB

Привет!

Мы группа людей которые решили помочь другим в решении их проблем, а так же пользователям с поиском самых свежих и качественных инфопродуктов. За 4 с небольшим месяца мы создали этот форум на который заходят ежедневно тысячи человек и посещаемость постоянно растёт. Мы создали панель лицензирования для защиты PHP скриптов от воровства и SEO панель для мониторинга наших сайтов и выбора верной стратегии их развития. Мы надеемся что то что мы создали пригодится Вам и возможно Вы поможете нам развиваться и совершенствоваться вместе с Вами.

Статистика форума

Темы
406.525
Сообщения
464.590
Пользователи
82.991
Новый пользователь
Tata7777

Приложения форума для iOS и Android


У ркн там нет власти ;)
Приватные разговоры
Помощь Пользователи
    Вы не присоединились ни к одной комнате.