За последнюю неделю опубликовано 63 новых материалов.
Инструкция новичку Путеводитель по форуму Прокси для Telegram Показать подсказки , это бомба!

Скачать Сила личности / The Power of One (1992) WEB-DLRip-AVC | P бесплатно через торрент

  • Поучаствуй (в качестве покупателя) в любых пяти совместных покупках (кроме завершённых и "Моментальных") и получи группу "Новичок" навсегда -> ссылка на раздел
  • Получай до 480 рублей за каждого приглашенного пользователя!
    представляем Вам очередное расширение партнерской программы, подробности описаны тут -> ссылка
  • 90% материалов доступно к скачиванию после простой регистрации!
    Если же ты хочешь скачивать материалы без требования оставлять отзывы то получи группу "Новичок", 10 способов повышения описаны тут -> ссылка
  • К сожалению количество битых ссылок растет и мы уже не можем их оперативно восстанавливать поэтому просим помощи у каждого нашего пользователя.
    С сегодняшнего дня, за каждую восстановленную ссылку мы заплатим Вам.
    Подробнее тут -> ссылка
  • Перенесем твои заслуги с другого ресурса!
    Мы понимаем как сложно прокачивать аккаунты на форумах, вроде раскачал аккаунт, а тут появляется ресурс в 100 раз круче но тоже с системой прокачки и снова качать аккаунт...
    Предлагаем вам перенести Ваши заслуги на другом подобном ресурсе к нам.
    Подробности описаны тут -> ссылка
  • Вы можете получать по 2.5% с каждой покупки и продажи на маркете! Подробности в теме Партнёрская программа
Если Вы не хотите скачивать, Вы всегда можетепосмотретьонлайн, просто нажмите кнопку ниже :

Открыть плеер

Torrent_Bot

Торрент-Бот
Бот форума
4 Окт 2016
92
160
20



Информация о фильме
Название: Сила личности
Оригинальное название: The Power of One
Год выхода: 1992
Жанр: Драма, экранизация
Режиссер: Джон Г. Эвилдсен
В ролях: Стивен Дорфф, Джон Гилгуд, Морган Фриман, Армин Мюллер-Шталь, Фэй Мастерсон, Дэниэл Крэйг, Номадлози Кубека, Агата Хёрл, Найджел Айви, Трейси Брук Своуп

О фильме:
Экранизация романа Брайса Кортнэя. Герой картины молодой южноафриканский боксер, которого зовут просто Пи-Кей (P.K.). В раннем детстве оставшийся без родительского присмотра Пи-Кей сначала воспитывался в негритянской семье, а затем был отправлен к близкому другу отца - эмигранту из Германии, которого все звали Доктор. Пи-Кею повезло: старшие друзья учили его не стремлению к материальному благополучию, а умению отстаивать собственные приципы и способности заступиться за слабого.



Выпущено: США, Франция, Австралия, Alcor Films, Canal+, Regency Enterprises
Продолжительность: 02:07:05
Перевод: Профессиональный (многоголосый,закадровый)
Субтитры: Russian, English

Файл
Формат: Matroska
Качество: WEB-DLRip-AVC | AMZN
Видео: 1056x572 at 23.976 fps, [email protected], ~2621 kbps, 0.181 bpp
Аудио: AC3, 2 ch, ~192 kbps - MVO, НТВ+ [со вставками Горчакова на моменты без перевода]
Формат субтитров: softsub (SRT)
Навигация по главам: Есть

***Релиз от:-=DoMiNo=-

M/I
x264 [info]: frame I:1233 Avg QP:17.33 size: 65059
x264 [info]: frame P:39981 Avg QP:18.61 size: 27203
x264 [info]: frame B:141608 Avg QP:20.95 size: 9397

General
Format : Matroska
Format version : Version 4
File size : 2.50 GiB
Duration : 2 h 7 min
Overall bit rate : 2 816 kb/s
Movie name : Сила личности.(1992).WEB-DLRip-AVC.[-=DoMiNo=-]
Encoded date : UTC 2020-07-21 07:08:39
Writing application : mkvmerge v48.0.0 ('Fortress Around Your Heart') 64-bit
Writing library : libebml v1.4.0 + libmatroska v1.6.0
Cover : Yes
Attachments : Cover.jpg / Cover 2.jpg

Video
ID : 1
Format : AVC
Format/Info : Advanced Video Codec
Format profile : [email protected]
Format settings : CABAC / 10 Ref Frames
Format settings, CABAC : Yes
Format settings, Reference : 10 frames
Codec ID : V_MPEG4/ISO/AVC
Duration : 2 h 7 min
Bit rate : 2 621 kb/s
Width : 1 056 pixels
Height : 572 pixels
Display aspect ratio : 1.85:1
Frame rate mode : Constant
Frame rate : 23.976 (24000/1001) FPS
Color space : YUV
Chroma subsampling : 4:2:0
Bit depth : 8 bits
Scan type : Progressive
Bits/(Pixel*Frame) : 0.181
Stream size : 2.33 GiB (93%)
Title : -=DoMiNo=-
Writing library : x264 core 161 r3018 db0d417
Encoding settings : cabac=1 / ref=10 / deblock=1:-3:-3 / analyse=0x3:0x133 / me=umh / subme=10 / psy=1 / psy_rd=1.00:0.00 / mixed_ref=1 / me_range=32 / chroma_me=1 / trellis=2 / 8x8dct=1 / cqm=0 / deadzone=21,11 / fast_pskip=0 / chroma_qp_offset=-2 / threads=6 / lookahead_threads=1 / sliced_threads=0 / nr=0 / decimate=1 / interlaced=0 / bluray_compat=0 / constrained_intra=0 / bframes=10 / b_pyramid=2 / b_adapt=2 / b_bias=0 / direct=1 / weightb=1 / open_gop=0 / weightp=2 / keyint=250 / keyint_min=23 / scenecut=40 / intra_refresh=0 / rc_lookahead=60 / rc=crf / mbtree=0 / crf=19.0 / qcomp=0.60 / qpmin=0 / qpmax=69 / qpstep=4 / vbv_maxrate=50000 / vbv_bufsize=62500 / crf_max=0.0 / nal_hrd=none / filler=0 / ip_ratio=1.40 / pb_ratio=1.30 / aq=1:1.00
Language : English
Default : Yes
Forced : No
Color range : Limited
Color primaries : BT.709
Transfer characteristics : BT.709
Matrix coefficients : BT.709

Audio
ID : 2
Format : AC-3
Format/Info : Audio Coding 3
Commercial name : Dolby Digital
Codec ID : A_AC3
Duration : 2 h 7 min
Bit rate mode : Constant
Bit rate : 192 kb/s
Channel(s) : 2 channels
Channel layout : L R
Sampling rate : 48.0 kHz
Frame rate : 31.250 FPS (1536 SPF)
Compression mode : Lossy
Stream size : 175 MiB (7%)
Title : MVO, НТВ+
Language : Russian
Service kind : Complete Main
Default : Yes
Forced : No

Text #1
ID : 3
Format : UTF-8
Codec ID : S_TEXT/UTF8
Codec ID/Info : UTF-8 Plain Text
Duration : 2 h 0 min
Bit rate : 98 b/s
Count of elements : 1527
Stream size : 86.6 KiB (0%)
Language : Russian
Default : No
Forced : No

Text #2
ID : 4
Format : UTF-8
Codec ID : S_TEXT/UTF8
Codec ID/Info : UTF-8 Plain Text
Duration : 1 h 58 min
Bit rate : 56 b/s
Count of elements : 2067
Stream size : 49.0 KiB (0%)
Language : English
Default : No
Forced : No

Text #3
ID : 5
Format : UTF-8
Codec ID : S_TEXT/UTF8
Codec ID/Info : UTF-8 Plain Text
Duration : 2 h 0 min
Bit rate : 57 b/s
Count of elements : 2158
Stream size : 50.7 KiB (0%)
Title : English for the Hearing Impaired
Language : English
Default : No
Forced : No

Text #4
ID : 6
Format : UTF-8
Codec ID : S_TEXT/UTF8
Codec ID/Info : UTF-8 Plain Text
Duration : 2 h 0 min
Bit rate : 57 b/s
Count of elements : 2175
Stream size : 50.7 KiB (0%)
Title : SDH
Language : English
Default : No
Forced : No

Menu
00:00:00.000 : en:Sad news
00:10:29.000 : en:pK's vision: Dabula Manzi restores his name
00:14:29.000 : en:Brute force
00:19:44.000 : en:Doc
00:25:43.000 : en:Barberton Prison
00:28:11.000 : en:Geel Piet
00:36:55.000 : en:A rainmaker
00:39:24.000 : en:Sgt. Bormann's boot
00:43:14.000 : en:A concert takes shape
00:49:29.000 : en:Opening remarks…translated
00:52:10.000 : en:The concert begins
00:53:47.000 : en:A free man
00:57:45.000 : en:The key to survival
01:00:06.000 : en:Eye contact
01:03:51.000 : en:A nighttime visit
01:06:12.000 : en:Gruenewald takes PK on
01:10:11.000 : en:Meeting Dr. Marais
01:12:57.000 : en:A boxing challenge
01:24:59.000 : en:An invitation from Maria
01:27:13.000 : en:A morning run full of questions
01:31:30.000 : en:The answer in nature
01:32:50.000 : en:A drop of water
01:34:56.000 : en:"I won't hate like you."
01:42:09.000 : en:Full of animals
01:44:52.000 : en:Daring the opponent
01:51:35.000 : en:"It works."
01:53:32.000 : en:Township under siege
01:56:23.000 : en:Showdown with Botha
01:59:10.000 : en:The voices of Africa
02:00:28.000 : en:Coda and End Credits
Скриншоты
 

Вложения

  • 101,1 KB Просмотры: 0
    Личеров 0
    Сидеров 0
    Файлов 1
    Объем 2,5 GB

Привет!

Мы группа людей которые решили помочь другим в решении их проблем, а так же пользователям с поиском самых свежих и качественных инфопродуктов. За 4 с небольшим месяца мы создали этот форум на который заходят ежедневно тысячи человек и посещаемость постоянно растёт. Мы создали панель лицензирования для защиты PHP скриптов от воровства и SEO панель для мониторинга наших сайтов и выбора верной стратегии их развития. Мы надеемся что то что мы создали пригодится Вам и возможно Вы поможете нам развиваться и совершенствоваться вместе с Вами.

Статистика форума

Темы
406.656
Сообщения
465.106
Пользователи
84.674
Новый пользователь
Юрий 1990

Приложения форума для iOS и Android


У ркн там нет власти ;)
Приватные разговоры
Помощь Пользователи
    Вы не присоединились ни к одной комнате.