За последнюю неделю опубликовано 52 новых материалов.
Инструкция новичку Путеводитель по форуму Прокси для Telegram Показать подсказки , это бомба!

Скачать Шулера / Rounders (1998) HDRip-AVC | P бесплатно через торрент

  • Поучаствуй (в качестве покупателя) в любых пяти совместных покупках (кроме завершённых и "Моментальных") и получи группу "Новичок" навсегда -> ссылка на раздел
  • Получай до 480 рублей за каждого приглашенного пользователя!
    представляем Вам очередное расширение партнерской программы, подробности описаны тут -> ссылка
  • 90% материалов доступно к скачиванию после простой регистрации!
    Если же ты хочешь скачивать материалы без требования оставлять отзывы то получи группу "Новичок", 10 способов повышения описаны тут -> ссылка
  • К сожалению количество битых ссылок растет и мы уже не можем их оперативно восстанавливать поэтому просим помощи у каждого нашего пользователя.
    С сегодняшнего дня, за каждую восстановленную ссылку мы заплатим Вам.
    Подробнее тут -> ссылка
  • Перенесем твои заслуги с другого ресурса!
    Мы понимаем как сложно прокачивать аккаунты на форумах, вроде раскачал аккаунт, а тут появляется ресурс в 100 раз круче но тоже с системой прокачки и снова качать аккаунт...
    Предлагаем вам перенести Ваши заслуги на другом подобном ресурсе к нам.
    Подробности описаны тут -> ссылка
  • Вы можете получать по 2.5% с каждой покупки и продажи на маркете! Подробности в теме Партнёрская программа
Если Вы не хотите скачивать, Вы всегда можетепосмотретьонлайн, просто нажмите кнопку ниже :

Открыть плеер

Torrent_Bot

Торрент-Бот
Бот форума
4 Окт 2016
93
160
20



Информация о фильме
Название: Шулера
Оригинальное название: Rounders
Год выхода: 1998
Жанр: Драма, криминал
Режиссер: Джон Дал
В ролях: Мэтт Дэймон, Эдвард Нортон, Пол Цицеро, Джон Туртурро, Рэй Яничелли, Гретхен Мол, Фамке Янссен, Мервин Голдсмит, Джон Малкович, Мартин Ландау, Сонни Зито, Майкл Рисполи, Мелина Канакаредес, Мэл З. Лоуренс, Джош Мостел, Ленни Кларк, Питер Йошида, Том Элдридж Джей Бореа, Ленни Венито, Ричард Мэйв, Майкл Ломбард, Бисон Кэрролл, Е. Мэтью Явн, Эрик Ларей Харви, Доминик Маркус, Брайан Энтони Уилсон, Джордж Мэк, Джозеф Паризи, Кол Саддаф, Чарли Маттес, Хэнк Джейкобс, Крис Мессина, Майкл Райан Сигал, Керри О’Мэлли, Слава Шут, Горан Вишнич, Мишель Занес, Аллан Харви, Джо Вега, Нил Хэмпхилл, Вернон Э. Джордан мл., Джон С. Чан, Лиза Горлитски, Джон Ди Бенедетто, Николь Бриер, Билл Кэм

О фильме:
В подпольных клубах Нью-Йорка идет крупная игра. Здесь свои правила и особые ставки. Тут можно потерять все, но если повезет, обеспечить будущее. Майк обладал потрясающим чутьем и шикарными мозгами. Червь был тертым шулером и крутил колоду, как бог. Он только вышел из тюрьмы, и с него требовали в пятидневный срок отдать старый долг — 15 тысяч долларов. У друзей был только один, слишком рискованный путь: играть в грязную игру!



Страна: США
Студия: Miramax Films, Spanky Pictures
Продолжительность: 02:00:46
Перевод: Профессиональный (многоголосый, закадровый)
Субтитры: Russian, English

Файл
Формат: Matroska
Качество: HDRip-AVC
Видео: 720x306 at 23.976 fps, [email protected], ~798 kbps, 0.151 bpp
Аудио: AAC, 2 ch, ~64 kbps - | Русский | -MVO [R5]
Формат субтитров: softsub (SRT)

***Релиз от:-=DoMiNo=-

M/I
x264 [info]: frame I:1333 Avg QP:18.12 size: 27292
x264 [info]: frame P:37915 Avg QP:19.45 size: 10192
x264 [info]: frame B:134484 Avg QP:21.27 size: 2225
x264 [info]: consecutive B-frames: 2.1% 2.8% 7.4% 21.6% 16.9% 41.1% 4.2% 2.1% 0.6% 0.3% 0.3% 0.3% 0.3%

General
Format : Matroska
Format version : Version 4
File size : 745 MiB
Duration : 2 h 0 min
Overall bit rate : 862 kb/s
Movie name : Шулера.(1998).HDRip-AVC.[-=DoMiNo=-]
Encoded date : UTC 2020-07-12 20:41:09
Writing application : mkvmerge v48.0.0 ('Fortress Around Your Heart') 64-bit
Writing library : libebml v1.4.0 + libmatroska v1.6.0
Cover : Yes
Attachments : Cover.jpg

Video
ID : 1
Format : AVC
Format/Info : Advanced Video Codec
Format profile : [email protected]
Format settings : CABAC / 12 Ref Frames
Format settings, CABAC : Yes
Format settings, Reference : 12 frames
Codec ID : V_MPEG4/ISO/AVC
Duration : 2 h 0 min
Bit rate : 798 kb/s
Width : 720 pixels
Height : 306 pixels
Display aspect ratio : 2.35:1
Frame rate mode : Constant
Frame rate : 23.976 (24000/1001) FPS
Color space : YUV
Chroma subsampling : 4:2:0
Bit depth : 8 bits
Scan type : Progressive
Bits/(Pixel*Frame) : 0.151
Stream size : 689 MiB (92%)
Title : -=DoMiNo=-
Writing library : x264 core 161 r3015 4c2aafd
Encoding settings : cabac=1 / ref=12 / deblock=1:-3:-3 / analyse=0x3:0x133 / me=umh / subme=11 / psy=1 / psy_rd=1.00:0.15 / mixed_ref=1 / me_range=32 / chroma_me=1 / trellis=2 / 8x8dct=1 / cqm=0 / deadzone=21,11 / fast_pskip=0 / chroma_qp_offset=-3 / threads=6 / lookahead_threads=1 / sliced_threads=0 / nr=0 / decimate=0 / interlaced=0 / bluray_compat=0 / constrained_intra=0 / bframes=12 / b_pyramid=2 / b_adapt=2 / b_bias=0 / direct=3 / weightb=1 / open_gop=0 / weightp=2 / keyint=250 / keyint_min=23 / scenecut=40 / intra_refresh=0 / rc_lookahead=60 / rc=2pass / mbtree=0 / bitrate=798 / ratetol=1.0 / qcomp=0.70 / qpmin=0 / qpmax=69 / qpstep=4 / cplxblur=20.0 / qblur=0.5 / vbv_maxrate=50000 / vbv_bufsize=62500 / nal_hrd=none / filler=0 / ip_ratio=1.40 / pb_ratio=1.30 / aq=1:1.00
Language : English
Default : Yes
Forced : No
Color range : Limited
Color primaries : BT.709
Transfer characteristics : BT.709
Matrix coefficients : BT.709

Audio
ID : 2
Format : AAC LC SBR
Format/Info : Advanced Audio Codec Low Complexity with Spectral Band Replication
Commercial name : HE-AAC
Format settings : Explicit
Codec ID : A_AAC-2
Duration : 2 h 0 min
Bit rate : 62.7 kb/s
Channel(s) : 2 channels
Channel layout : L R
Sampling rate : 48.0 kHz
Frame rate : 23.438 FPS (2048 SPF)
Compression mode : Lossy
Stream size : 54.2 MiB (7%)
Title : MVO_[R5]
Language : Russian
Default : Yes
Forced : No

Text #1
ID : 3
Format : UTF-8
Codec ID : S_TEXT/UTF8
Codec ID/Info : UTF-8 Plain Text
Duration : 1 h 53 min
Bit rate : 123 b/s
Count of elements : 1538
Stream size : 102 KiB (0%)
Language : Russian
Default : No
Forced : No

Text #2
ID : 4
Format : UTF-8
Codec ID : S_TEXT/UTF8
Codec ID/Info : UTF-8 Plain Text
Duration : 1 h 53 min
Bit rate : 87 b/s
Count of elements : 1690
Stream size : 72.2 KiB (0%)
Language : English
Default : No
Forced : No

Menu
00:00:00.000 : en:A True Grinder
00:10:41.432 : en:Gone Straight
00:18:50.171 : en:Someone Called Worm...
00:24:15.371 : en:Back In The Game
00:31:22.798 : en:Nowhere Near The Cards
00:35:39.429 : en:The Lesson Never Learned
00:41:56.723 : en:Alive For The First Time
00:46:20.778 : en:Our Destiny Chooses Us
00:58:30.924 : en:The Juice Is Running
01:03:10.203 : en:Cut Him Off
01:10:36.732 : en:Then It's Me, Too
01:18:23.782 : en:playing The Cops
01:24:53.046 : en:Rounding Again
01:35:07.285 : en:I'm Looking For A Game
01:44:50.951 : en:Risking At All
01:51:51.914 : en:Vegas And The World Series
Скриншоты
 

Вложения

  • 30,2 KB Просмотры: 0
    Личеров 0
    Сидеров 0
    Файлов 1
    Объем 744,7 MB

Привет!

Мы группа людей которые решили помочь другим в решении их проблем, а так же пользователям с поиском самых свежих и качественных инфопродуктов. За 4 с небольшим месяца мы создали этот форум на который заходят ежедневно тысячи человек и посещаемость постоянно растёт. Мы создали панель лицензирования для защиты PHP скриптов от воровства и SEO панель для мониторинга наших сайтов и выбора верной стратегии их развития. Мы надеемся что то что мы создали пригодится Вам и возможно Вы поможете нам развиваться и совершенствоваться вместе с Вами.

Статистика форума

Темы
406.648
Сообщения
465.115
Пользователи
84.620
Новый пользователь
Pestone79

Приложения форума для iOS и Android


У ркн там нет власти ;)
Приватные разговоры
Помощь Пользователи
    Вы не присоединились ни к одной комнате.