За последнюю неделю опубликовано 34 новых материалов.
Инструкция новичку Путеводитель по форуму Прокси для Telegram Показать подсказки , это бомба!

Скачать Шоколад / Chocolate (2008) HDRip-AVC от ExKinoRay | P бесплатно через торрент

  • Поучаствуй (в качестве покупателя) в любых пяти совместных покупках (кроме завершённых и "Моментальных") и получи группу "Новичок" навсегда -> ссылка на раздел
  • Получай до 480 рублей за каждого приглашенного пользователя!
    представляем Вам очередное расширение партнерской программы, подробности описаны тут -> ссылка
  • 90% материалов доступно к скачиванию после простой регистрации!
    Если же ты хочешь скачивать материалы без требования оставлять отзывы то получи группу "Новичок", 10 способов повышения описаны тут -> ссылка
  • К сожалению количество битых ссылок растет и мы уже не можем их оперативно восстанавливать поэтому просим помощи у каждого нашего пользователя.
    С сегодняшнего дня, за каждую восстановленную ссылку мы заплатим Вам.
    Подробнее тут -> ссылка
  • Перенесем твои заслуги с другого ресурса!
    Мы понимаем как сложно прокачивать аккаунты на форумах, вроде раскачал аккаунт, а тут появляется ресурс в 100 раз круче но тоже с системой прокачки и снова качать аккаунт...
    Предлагаем вам перенести Ваши заслуги на другом подобном ресурсе к нам.
    Подробности описаны тут -> ссылка
  • Вы можете получать по 2.5% с каждой покупки и продажи на маркете! Подробности в теме Партнёрская программа
Если Вы не хотите скачивать, Вы всегда можетепосмотретьонлайн, просто нажмите кнопку ниже :

Открыть плеер

Torrent_Bot

Торрент-Бот
Бот форума
4 Окт 2016
93
160
20



Информация о фильме
Название: Шоколад
Оригинальное название: Chocolate
Год выхода: 2008
Жанр: Боевик, драма
Режиссер: Прачья Пинкаю | Prachya Pinkaew
В ролях: Яанин Висмитананда, Джей Йа Яанин, Амара Сирипонг, Понпат Вачирабунджонг, Хироши Абе

О фильме:
У главной героини Зэн диагностировали аутизм в раннем детстве, но при этом она обладает феноменальными способностями к боевым искусствам. Именно этот талант помогает Зэн прокормить себя и больную мать Зин. Вместео со своим другом Моомом она выступает на улице, показывая трюки с восточными единоборствами. Однажды девушка находит старую тетрадь матери, в которой записаны люди, задолжавшие ей большие суммы денег. Решив, что пришла пора вернуть эти долги, Зэн и Моом отправились по списку. Они не подозревая, что все указанные в тетради люди — бандиты из мафии «Якудза».




Страна: Таиланд
Студия: Baa-Ram-Ewe
Продолжительность: 01:32:27
Перевод : Профессиональный (многоголосый, закадровый)

Файл
Формат: MKV
Качество: HDRip-AVC
Видео: MPEG-4 AVC, 1016x574, - 2760 Кбит/с
Аудио: AC3, 6 ch, 448 Кбит/с
Субтитры: Русские, английские

MI
Общее
Уникальный идентификатор : 312939021588011032124982543143091314067 (0xEB6DDCFD95141DED3D7491095FE41D93)
Полное имя : D:MOVIESShokolad.2008.HDRip-AVC.ExKinoRay.mkv
Формат : Matroska
Версия формата : Version 4
Размер файла : 2,07 Гбайт
Продолжительность : 1 ч. 32 м.
Общий поток : 3 205 Кбит/сек
Дата кодирования : UTC 2020-06-27 04:39:53
Программа кодирования : mkvmerge v45.0.0 ('Heaven in Pennies') 64-bit
Библиотека кодирования : libebml v1.3.10 + libmatroska v1.5.2

Видео
Идентификатор : 1
Формат : AVC
Формат/Информация : Advanced Video Codec
Профиль формата : [email protected]
Настройки формата : CABAC / 12 Ref Frames
Параметр CABAC формата : Да
Параметр RefFrames формата : 12 кадров
Идентификатор кодека : V_MPEG4/ISO/AVC
Продолжительность : 1 ч. 32 м.
Битрейт : 2 760 Кбит/сек
Ширина : 1 016 пикселей
Высота : 574 пикселя
Соотношение сторон : 16:9
Режим частоты кадров : Постоянный
Частота кадров : 24,000 кадра/сек
Цветовое пространство : YUV
Субдискретизация насыщенности : 4:2:0
Битовая глубина : 8 бит
Тип развёртки : Прогрессивная
Бит/(Пиксели*Кадры) : 0.197
Размер потока : 1,78 Гбайт (86%)
Библиотека кодирования : x264 core 160 r3000 33f9e14
Настройки программы : cabac=1 / ref=12 / deblock=1:-3:-3 / analyse=0x3:0x133 / me=umh / subme=10 / psy=1 / psy_rd=1.05:0.14 / mixed_ref=1 / me_range=32 / chroma_me=1 / trellis=2 / 8x8dct=1 / cqm=0 / deadzone=21,11 / fast_pskip=0 / chroma_qp_offset=-3 / threads=6 / lookahead_threads=1 / sliced_threads=0 / nr=0 / decimate=0 / interlaced=0 / bluray_compat=0 / constrained_intra=0 / bframes=11 / b_pyramid=2 / b_adapt=2 / b_bias=0 / direct=3 / weightb=1 / open_gop=0 / weightp=2 / keyint=240 / keyint_min=24 / scenecut=40 / intra_refresh=0 / rc=2pass / mbtree=0 / bitrate=2760 / ratetol=1.0 / qcomp=0.60 / qpmin=0 / qpmax=69 / qpstep=4 / cplxblur=20.0 / qblur=0.5 / ip_ratio=1.40 / pb_ratio=1.30 / aq=1:1.00
Язык : English
Default : Да
Forced : Нет
Цветовой диапазон : Limited
Основные цвета : BT.709
Характеристики трансфера : BT.709
Коэффициенты матрицы : BT.709

Аудио
Идентификатор : 2
Формат : AC-3
Формат/Информация : Audio Coding 3
Коммерческое название : Dolby Digital
Идентификатор кодека : A_AC3
Продолжительность : 1 ч. 32 м.
Вид битрейта : Постоянный
Битрейт : 448 Кбит/сек
Каналы : 6 каналов
Channel layout : L R C LFE Ls Rs
Частота : 48,0 КГц
Частота кадров : 31,250 кадров/сек (1536 SPF)
Метод сжатия : С потерями
Размер потока : 296 Мбайт (14%)
Язык : Russian
Service kind : Complete Main
Default : Да
Forced : Нет

Текст #1
Идентификатор : 3
Формат : UTF-8
Идентификатор кодека : S_TEXT/UTF8
Идентификатор кодека/Информация : UTF-8 Plain Text
Продолжительность : 1 ч. 25 м.
Битрейт : 27 бит/сек
Count of elements : 381
Размер потока : 17,4 Кбайт (0%)
Язык : Russian
Default : Нет
Forced : Нет

Текст #2
Идентификатор : 4
Формат : UTF-8
Идентификатор кодека : S_TEXT/UTF8
Идентификатор кодека/Информация : UTF-8 Plain Text
Продолжительность : 1 ч. 24 м.
Битрейт : 18 бит/сек
Count of elements : 363
Размер потока : 11,3 Кбайт (0%)
Язык : English
Default : Нет
Forced : Нет

Меню
00:00:00.000 : en:00:00:00.000
00:08:59.956 : en:00:08:59.956
00:13:59.172 : en:00:13:59.172
00:21:54.855 : en:00:21:54.855
00:31:09.326 : en:00:31:09.326
00:37:33.543 : en:00:37:33.543
00:43:23.601 : en:00:43:23.601
00:53:20.197 : en:00:53:20.197
00:56:07.239 : en:00:56:07.239
01:00:37.384 : en:01:00:37.384
01:11:59.524 : en:01:11:59.524
01:25:33.837 : en:01:25:33.837
Скриншоты

 

Вложения

  • 11,4 KB Просмотры: 0
    Личеров 0
    Сидеров 0
    Файлов 1
    Объем 2,1 GB

Привет!

Мы группа людей которые решили помочь другим в решении их проблем, а так же пользователям с поиском самых свежих и качественных инфопродуктов. За 4 с небольшим месяца мы создали этот форум на который заходят ежедневно тысячи человек и посещаемость постоянно растёт. Мы создали панель лицензирования для защиты PHP скриптов от воровства и SEO панель для мониторинга наших сайтов и выбора верной стратегии их развития. Мы надеемся что то что мы создали пригодится Вам и возможно Вы поможете нам развиваться и совершенствоваться вместе с Вами.

Статистика форума

Темы
406.602
Сообщения
464.990
Пользователи
84.246
Новый пользователь
Jacksn

Приложения форума для iOS и Android


У ркн там нет власти ;)
Приватные разговоры
Помощь Пользователи
    Вы не присоединились ни к одной комнате.