За последнюю неделю опубликовано 57 новых материалов.
Инструкция новичку Путеводитель по форуму Прокси для Telegram Показать подсказки , это бомба!

Скачать Школа рока / The School of Rock (2003) BDRip 720p от FREEISLAND | D бесплатно через торрент

  • Поучаствуй (в качестве покупателя) в любых пяти совместных покупках (кроме завершённых и "Моментальных") и получи группу "Новичок" навсегда -> ссылка на раздел
  • Получай до 480 рублей за каждого приглашенного пользователя!
    представляем Вам очередное расширение партнерской программы, подробности описаны тут -> ссылка
  • 90% материалов доступно к скачиванию после простой регистрации!
    Если же ты хочешь скачивать материалы без требования оставлять отзывы то получи группу "Новичок", 10 способов повышения описаны тут -> ссылка
  • К сожалению количество битых ссылок растет и мы уже не можем их оперативно восстанавливать поэтому просим помощи у каждого нашего пользователя.
    С сегодняшнего дня, за каждую восстановленную ссылку мы заплатим Вам.
    Подробнее тут -> ссылка
  • Перенесем твои заслуги с другого ресурса!
    Мы понимаем как сложно прокачивать аккаунты на форумах, вроде раскачал аккаунт, а тут появляется ресурс в 100 раз круче но тоже с системой прокачки и снова качать аккаунт...
    Предлагаем вам перенести Ваши заслуги на другом подобном ресурсе к нам.
    Подробности описаны тут -> ссылка
  • Вы можете получать по 2.5% с каждой покупки и продажи на маркете! Подробности в теме Партнёрская программа
Если Вы не хотите скачивать, Вы всегда можетепосмотретьонлайн, просто нажмите кнопку ниже :

Открыть плеер

Torrent_Bot

Торрент-Бот
Бот форума
4 Окт 2016
92
163
20


Информация о фильме
Название: Школа рока
Оригинальное название: The School of Rock
Год выхода: 2003
Жанр: комедия, музыка
Режиссер: Ричард Линклейтер
В ролях: Джек Блэк, Джоан Кьюсак, Майк Уайт, Сара Силверман, Адам Паскаль, Лукас Папаэлиас, Крис Стэк, Лукас Бабин, Джордан-Клэр Грин, Вероника Аффлербах

О фильме:
После нескольких лет подъема блестящая карьера рок-звезды Дьюи Финна заканчивается полным провалом. Все, что его теперь ждет, это неоплаченные долги и тяжелая депрессия. Но, перехватив не предназначавшийся ему телефонный звонок и придя в изумление от зарплаты (650 долларов в неделю), Дьюи устраивается работать в частную школу.Его отношение к музыке и детям творит там чудеса, и вскоре появляется возможность начать звездную карьеру заново. Нужно только выиграть конкурс лучших рок-групп — и все проблемы легко разрешатся. Дьюи полон оптимизма, ведь вместе с ним его новый друг — девятилетний Зак, виртуозно играющий на гитаре!



Страна: США , Германия
Студия: Paramount Pictures
Продолжительность: 01:49:16
Перевод: Профессиональный (дублированный)

Файл
Кодек: H.264
Качество: BDrip 720p
Видео: 1280x720 (16:9), 23.976 fps, AVC, 5 343 Kbps
Звук: AC3, 384 Kbps, 48.0 KHz, 2 ch
Субтитры: Russian , english (srt)


MI:
General
Complete name : The School of Rock(2003)BDRip720p-F.H.D.mkv
Format : Matroska
File size : 4.37 GiB
Duration : 1h 49mn
Overall bit rate : 5 729 Kbps
Encoded date : UTC 2012-06-30 22:02:24
Writing application : mkvmerge v5.6.0 ('Kenya Kane') built on May 27 2012 16:44:04
Writing library : libebml v1.2.3 + libmatroska v1.3.0

Video
ID : 1
Format : AVC
Format/Info : Advanced Video Codec
Format profile : [email protected]
Format settings, CABAC : Yes
Format settings, ReFrames : 8 frames
Muxing mode : Container [email protected]
Codec ID : V_MPEG4/ISO/AVC
Duration : 1h 49mn
Bit rate : 5 343 Kbps
Width : 1 280 pixels
Height : 720 pixels
Display aspect ratio : 16:9
Frame rate : 23.976 fps
Color space : YUV
Chroma subsampling : 4:2:0
Bit depth : 8 bits
Scan type : Progressive
Bits/(Pixel*Frame) : 0.242
Stream size : 3.99 GiB (91%)
Writing library : x264 core 125 r2200 999b753
Encoding settings : cabac=1 / ref=8 / deblock=1:-1:-1 / analyse=0x3:0x113 / me=umh / subme=10 / psy=1 / psy_rd=1.00:0.25 / mixed_ref=1 / me_range=48 / chroma_me=1 / trellis=2 / 8x8dct=1 / cqm=0 / deadzone=21,11 / fast_pskip=0 / chroma_qp_offset=-2 / threads=6 / lookahead_threads=1 / sliced_threads=0 / nr=0 / decimate=0 / interlaced=0 / bluray_compat=0 / constrained_intra=0 / bframes=7 / b_pyramid=2 / b_adapt=2 / b_bias=0 / direct=3 / weightb=1 / open_gop=0 / weightp=2 / keyint=240 / keyint_min=23 / scenecut=40 / intra_refresh=0 / rc=2pass / mbtree=0 / bitrate=5343 / ratetol=1.0 / qcomp=0.70 / qpmin=0 / qpmax=69 / qpstep=4 / cplxblur=20.0 / qblur=0.5 / ip_ratio=1.40 / pb_ratio=1.30 / aq=2:0.90
Color primaries : BT.709-5, BT.1361, IEC 61966-2-4, SMPTE RP177
Transfer characteristics : BT.709-5, BT.1361
Matrix coefficients : BT.709-5, BT.1361, IEC 61966-2-4 709, SMPTE RP177

Audio
ID : 2
Format : AC-3
Format/Info : Audio Coding 3
Mode extension : CM (complete main)
Codec ID : A_AC3
Duration : 1h 49mn
Bit rate mode : Constant
Bit rate : 384 Kbps
Channel(s) : 2 channels
Channel positions : Front: L R
Sampling rate : 48.0 KHz
Bit depth : 16 bits
Stream size : 300 MiB (7%)
Language : Russian

Text #1
ID : 3
Format : UTF-8
Codec ID : S_TEXT/UTF8
Codec ID/Info : UTF-8 Plain Text
Language : Russian

Text #2
ID : 4
Format : UTF-8
Codec ID : S_TEXT/UTF8
Codec ID/Info : UTF-8 Plain Text

Menu
00:00:00.000 : en:Chapter 01
00:05:35.710 : en:Chapter 02
00:10:35.051 : en:Chapter 03
00:15:45.819 : en:Chapter 04
00:20:38.070 : en:Chapter 05
00:25:01.750 : en:Chapter 06
00:33:15.326 : en:Chapter 07
00:38:27.471 : en:Chapter 08
00:45:17.214 : en:Chapter 09
00:52:09.835 : en:Chapter 10
00:58:28.338 : en:Chapter 11
01:02:00.216 : en:Chapter 12
01:06:55.219 : en:Chapter 13
01:12:25.381 : en:Chapter 14
01:18:26.660 : en:Chapter 15
01:24:28.979 : en:Chapter 16
01:31:34.030 : en:Chapter 17
01:39:18.452 : en:Chapter 18
01:49:16.007 : en:Chapter 19
Скриншоты



Релиз от:
 

Вложения

  • 23 KB Просмотры: 0
    Личеров 0
    Сидеров 0
    Файлов 1
    Объем 4,4 GB

Привет!

Мы группа людей которые решили помочь другим в решении их проблем, а так же пользователям с поиском самых свежих и качественных инфопродуктов. За 4 с небольшим месяца мы создали этот форум на который заходят ежедневно тысячи человек и посещаемость постоянно растёт. Мы создали панель лицензирования для защиты PHP скриптов от воровства и SEO панель для мониторинга наших сайтов и выбора верной стратегии их развития. Мы надеемся что то что мы создали пригодится Вам и возможно Вы поможете нам развиваться и совершенствоваться вместе с Вами.

Статистика форума

Темы
406.698
Сообщения
465.162
Пользователи
84.790
Новый пользователь
wesennijh

Приложения форума для iOS и Android


У ркн там нет власти ;)
Приватные разговоры
Помощь Пользователи
    Вы не присоединились ни к одной комнате.