За последнюю неделю опубликовано 57 новых материалов.
Инструкция новичку Путеводитель по форуму Прокси для Telegram Показать подсказки , это бомба!

Скачать Шанхайская крепость / Shanghai Fortress / Shanghai Hai Bao Lei (2019) WEB-DLRip-AVC от Batafurai Team | L2 бесплатно через торрент

  • Поучаствуй (в качестве покупателя) в любых пяти совместных покупках (кроме завершённых и "Моментальных") и получи группу "Новичок" навсегда -> ссылка на раздел
  • Получай до 480 рублей за каждого приглашенного пользователя!
    представляем Вам очередное расширение партнерской программы, подробности описаны тут -> ссылка
  • 90% материалов доступно к скачиванию после простой регистрации!
    Если же ты хочешь скачивать материалы без требования оставлять отзывы то получи группу "Новичок", 10 способов повышения описаны тут -> ссылка
  • К сожалению количество битых ссылок растет и мы уже не можем их оперативно восстанавливать поэтому просим помощи у каждого нашего пользователя.
    С сегодняшнего дня, за каждую восстановленную ссылку мы заплатим Вам.
    Подробнее тут -> ссылка
  • Перенесем твои заслуги с другого ресурса!
    Мы понимаем как сложно прокачивать аккаунты на форумах, вроде раскачал аккаунт, а тут появляется ресурс в 100 раз круче но тоже с системой прокачки и снова качать аккаунт...
    Предлагаем вам перенести Ваши заслуги на другом подобном ресурсе к нам.
    Подробности описаны тут -> ссылка
  • Вы можете получать по 2.5% с каждой покупки и продажи на маркете! Подробности в теме Партнёрская программа
Если Вы не хотите скачивать, Вы всегда можетепосмотретьонлайн, просто нажмите кнопку ниже :

Открыть плеер

Torrent_Bot

Торрент-Бот
Бот форума
4 Окт 2016
92
163
20


Шанхайская крепость / Shanghai Fortress / Shanghai Hai Bao Lei

Год выпуска: 2019
Страна: Китай
Жанр: боевик, трагедия, научная фантастика, саспенс
Продолжительность: 01:47:02
Перевод: Любительский (двухгоголосый закадровый)
Cубтитры: pусские
Оригинальная аудиодорожка: Китайский

Режиссер: Хуа-Тао Тенг / Hua-Tao Teng

В ролях: Годфри Гао, Лу Хань, Хуан Ю Ци, Ван Кэ Да, Шу Ци, Сунь Цзя Лин, Ван Сэнь

Описание: В будущем город Шанхай пытается устоять под натиском инопланетных сил, которые атаковали многие города по всему миру. Инопланетные захватчики охотятся за скрытой энергией, найти которую удалось лишь на Земле.

Релиз группы:

Доп. информация: Озвучивание: Ворон и Lem0nka

Смотреть обязательно с форсированными субтитрами
Прежде чем качать видео и комментировать, скачайте сэмпл и послушайте!

Качество видео: WEB-DLRip-AVC - Сэмпл
Исходник: Shanghai.Fortress.2019.1080p.NF.WEB-DL.DDP5.1.x264-DEEP
Формат видео: MKV
Видео: 800x336 (2,40:1), 24,000 fps, x264 ~1 854 kbps avg, 0.287 bit/pixel
Аудио: 48 kHz, AC3 Dolby Digital, 3/2 (L,C,R,l,r) + LFE ch, ~448 kbps (Русский)
Аудио 2: 48 kHz, AC3 Dolby Digital, 3/2 (L,C,R,l,r) + LFE ch, ~448 kbps (Китайский)
Формат субтитров: [форсированный(надписи) / полные]softsub (ass)

Скриншоты
отчет MediaInfo
Формат : Matroska
Версия формата : Version 4
Размер файла : 2,06 Гбайт
Продолжительность : 1 ч. 47 м.
Общий поток : 2 752 Кбит/сек
Дата кодирования : UTC 2020-05-24 14:55:26
Программа кодирования : mkvmerge v8.2.0 ('World of Adventure') 32bit
Библиотека кодирования : libebml v1.3.1 + libmatroska v1.4.2
Attachments : v_CCcomicrazy.ttf

Видео
Идентификатор : 1
Формат : AVC
Формат/Информация : Advanced Video Codec
Профиль формата : [email protected]
Настройки формата : CABAC / 10 Ref Frames
Параметр CABAC формата : Да
Параметр RefFrames формата : 10 кадров
Идентификатор кодека : V_MPEG4/ISO/AVC
Продолжительность : 1 ч. 47 м.
Битрейт : 1 854 Кбит/сек
Ширина : 800 пикселей
Высота : 336 пикселей
Соотношение сторон : 2,40:1
Режим частоты кадров : Постоянный
Частота кадров : 24,000 кадра/сек
Цветовое пространство : YUV
Субдискретизация насыщенности : 4:2:0
Битовая глубина : 8 бит
Тип развёртки : Прогрессивная
Бит/(Пиксели*Кадры) : 0.287
Размер потока : 1,39 Гбайт (67%)
Библиотека кодирования : x264 core 159 r2991 1771b55
Настройки программы : cabac=1 / ref=10 / deblock=1:-2:-1 / analyse=0x3:0x133 / me=umh / subme=10 / psy=1 / psy_rd=1.00:0.00 / mixed_ref=1 / me_range=24 / chroma_me=1 / trellis=2 / 8x8dct=1 / cqm=0 / deadzone=21,11 / fast_pskip=0 / chroma_qp_offset=-2 / threads=10 / lookahead_threads=2 / sliced_threads=0 / nr=0 / decimate=0 / interlaced=0 / bluray_compat=0 / constrained_intra=0 / bframes=10 / b_pyramid=2 / b_adapt=2 / b_bias=0 / direct=3 / weightb=1 / open_gop=1 / weightp=2 / keyint=240 / keyint_min=24 / scenecut=40 / intra_refresh=0 / rc_lookahead=60 / rc=2pass / mbtree=0 / bitrate=1854 / ratetol=1.0 / qcomp=0.70 / qpmin=10 / qpmax=51 / qpstep=4 / cplxblur=20.0 / qblur=0.5 / vbv_maxrate=62500 / vbv_bufsize=78125 / nal_hrd=none / filler=0 / ip_ratio=1.40 / pb_ratio=1.30 / aq=1:1.00
Язык : English
Default : Да
Forced : Нет
Цветовой диапазон : Limited
Коэффициенты матрицы : BT.709

Аудио #1
Идентификатор : 2
Формат : AC-3
Формат/Информация : Audio Coding 3
Коммерческое название : Dolby Digital
Идентификатор кодека : A_AC3
Продолжительность : 1 ч. 47 м.
Вид битрейта : Постоянный
Битрейт : 448 Кбит/сек
Каналы : 6 каналов
Channel layout : L R C LFE Ls Rs
Частота : 48,0 КГц
Частота кадров : 31,250 кадров/сек (1536 SPF)
Метод сжатия : С потерями
Размер потока : 343 Мбайт (16%)
Заголовок : Ворон и Lem0nka
Язык : Russian
Default : Да
Forced : Нет

Аудио #2
Идентификатор : 3
Формат : AC-3
Формат/Информация : Audio Coding 3
Коммерческое название : Dolby Digital
Идентификатор кодека : A_AC3
Продолжительность : 1 ч. 47 м.
Вид битрейта : Постоянный
Битрейт : 448 Кбит/сек
Каналы : 6 каналов
Channel layout : L R C LFE Ls Rs
Частота : 48,0 КГц
Частота кадров : 31,250 кадров/сек (1536 SPF)
Метод сжатия : С потерями
Размер потока : 343 Мбайт (16%)
Заголовок : Original
Язык : Chinese
Default : Нет
Forced : Нет

Текст #1
Идентификатор : 4
Формат : ASS
Идентификатор кодека : S_TEXT/ASS
Идентификатор кодека/Информация : Advanced Sub Station Alpha
Продолжительность : 1 ч. 38 м.
Битрейт : 4 бит/сек
Count of elements : 55
Метод сжатия : Без потерь
Размер потока : 3,13 Кбайт (0%)
Заголовок : форсированный(надписи)
Язык : Russian
Default : Да
Forced : Нет

Текст #2
Идентификатор : 5
Формат : ASS
Идентификатор кодека : S_TEXT/ASS
Идентификатор кодека/Информация : Advanced Sub Station Alpha
Продолжительность : 1 ч. 38 м.
Битрейт : 93 бит/сек
Count of elements : 936
Метод сжатия : Без потерь
Размер потока : 67,4 Кбайт (0%)
Заголовок : Перевод субтитров: Софьи Меланж
Язык : Russian
Default : Нет
Forced : Нет
Пример Субтитров
Dialogue: 0,0:03:02.33,0:03:03.50,Default,,0,0,0,,ВРАГИ АТАКУЮТ ГОРОД
Dialogue: 0,0:03:24.00,0:03:26.25,Default,,0,0,0,,Атакуем корабль.NЛетчики один и два.
Dialogue: 0,0:03:26.66,0:03:28.16,Default,,0,0,0,,- Поняла.N- Вас понял.
Dialogue: 0,0:03:33.70,0:03:35.75,Default,,0,0,0,,Цзэн Ю, следи за левым крылом.
Dialogue: 0,0:03:35.83,0:03:36.75,Default,,0,0,0,,Вас понял.
Dialogue: 0,0:03:38.08,0:03:39.70,Default,,0,0,0,,Лу Йи, приготовься стрелять.
Dialogue: 0,0:03:39.79,0:03:40.66,Default,,0,0,0,,Поняла.
Dialogue: 0,0:03:41.29,0:03:43.70,Default,,0,0,0,,Истребитель 3,Nнаправляйтесь к зоне атаки.
Dialogue: 0,0:03:44.12,0:03:48.00,Default,,0,0,0,,Держитесь, ребята.NСоберите врагов и стреляйте вместе.
Dialogue: 0,0:03:48.79,0:03:51.58,Default,,0,0,0,,Но, Цзян Ян,Nкак долго мне нужно продержаться?
Dialogue: 0,0:03:51.66,0:03:54.70,Default,,0,0,0,,Цзян Ян, третья волнаNприбудет через 15 секунд.
Dialogue: 0,0:03:54.79,0:03:56.12,Default,,0,0,0,,Капитан Пан в ударе!
Dialogue: 0,0:03:56.54,0:03:58.25,Default,,0,0,0,,- Фокус на координаты.N- Есть!
Dialogue: 0,0:03:58.33,0:04:00.50,Default,,0,0,0,,Атака киберклещей.NТрое на одного!
Dialogue: 0,0:04:00.58,0:04:01.54,Default,,0,0,0,,Времени нет.
Dialogue: 0,0:04:01.62,0:04:03.62,Default,,0,0,0,,Цзэн Ю, замани их.NВ зону засады.
Dialogue: 0,0:04:04.20,0:04:05.75,Default,,0,0,0,,Почему снова я?
Dialogue: 0,0:04:05.87,0:04:07.87,Default,,0,0,0,,Ты быстрее всех.
Dialogue: 0,0:04:19.25,0:04:21.50,Default,,0,0,0,,КОМАНДИР ЛИНЬ ЛАНЬ
Dialogue: 0,0:04:27.37,0:04:29.33,Default,,0,0,0,,ГЛАВНОКОМАНДУЮЩИЙ ШАО ИЮНЬ
Dialogue: 0,0:04:29.41,0:04:31.33,Default,,0,0,0,,- Как дела?N- Ребята практикуются.
Dialogue: 0,0:04:36.75,0:04:39.08,Default,,0,0,0,,Неплохо. Есть успехи.
Dialogue: 0,0:04:40.29,0:04:41.75,Default,,0,0,0,,Понимают основы тактики,
Dialogue: 0,0:04:41.83,0:04:45.08,Default,,0,0,0,,но над командной координациейNнужно работать.
Dialogue: 0,0:04:45.16,0:04:48.50,Default,,0,0,0,,И управлять истребителем типа АВ28Nс двойной системой
 

Вложения

  • 11,2 KB Просмотры: 0
    Личеров 0
    Сидеров 0
    Файлов 1
    Объем 2,1 GB

Привет!

Мы группа людей которые решили помочь другим в решении их проблем, а так же пользователям с поиском самых свежих и качественных инфопродуктов. За 4 с небольшим месяца мы создали этот форум на который заходят ежедневно тысячи человек и посещаемость постоянно растёт. Мы создали панель лицензирования для защиты PHP скриптов от воровства и SEO панель для мониторинга наших сайтов и выбора верной стратегии их развития. Мы надеемся что то что мы создали пригодится Вам и возможно Вы поможете нам развиваться и совершенствоваться вместе с Вами.

Статистика форума

Темы
406.698
Сообщения
465.161
Пользователи
84.787
Новый пользователь
Freckle

Приложения форума для iOS и Android


У ркн там нет власти ;)
Приватные разговоры
Помощь Пользователи
    Вы не присоединились ни к одной комнате.