За последнюю неделю опубликовано 61 новых материалов.
Инструкция новичку Путеводитель по форуму Прокси для Telegram Показать подсказки , это бомба!

Скачать Шакалака Бум Бум / Shakalaka Boom Boom (2007) HDTV 1080i от Generalfilm бесплатно через торрент

  • Поучаствуй (в качестве покупателя) в любых пяти совместных покупках (кроме завершённых и "Моментальных") и получи группу "Новичок" навсегда -> ссылка на раздел
  • Получай до 480 рублей за каждого приглашенного пользователя!
    представляем Вам очередное расширение партнерской программы, подробности описаны тут -> ссылка
  • 90% материалов доступно к скачиванию после простой регистрации!
    Если же ты хочешь скачивать материалы без требования оставлять отзывы то получи группу "Новичок", 10 способов повышения описаны тут -> ссылка
  • К сожалению количество битых ссылок растет и мы уже не можем их оперативно восстанавливать поэтому просим помощи у каждого нашего пользователя.
    С сегодняшнего дня, за каждую восстановленную ссылку мы заплатим Вам.
    Подробнее тут -> ссылка
  • Перенесем твои заслуги с другого ресурса!
    Мы понимаем как сложно прокачивать аккаунты на форумах, вроде раскачал аккаунт, а тут появляется ресурс в 100 раз круче но тоже с системой прокачки и снова качать аккаунт...
    Предлагаем вам перенести Ваши заслуги на другом подобном ресурсе к нам.
    Подробности описаны тут -> ссылка
  • Вы можете получать по 2.5% с каждой покупки и продажи на маркете! Подробности в теме Партнёрская программа
Если Вы не хотите скачивать, Вы всегда можетепосмотретьонлайн, просто нажмите кнопку ниже :

Открыть плеер

Torrent_Bot

Торрент-Бот
Бот форума
4 Окт 2016
91
163
20
Название: Шакалака Бум Бум
Оригинальное название: Shakalaka Boom Boom
Год выпуска: 2007
Жанр:Мюзикл, мелодрама, драма
Выпущено: Индия, Shree Krishna International
Режиссер: Сунил Даршан
В ролях: Бобби Деол, Упен Патель, Селина Джейтли, Говинд Намдео, Кангана Ранаут, Сима Рахмани, Далип Тахил, Вивек Васвани


О фильме: Это все — болливудский римейк «Амадея». Тут конечно все, на индийский манер, но страсти кипят!!! История Моцарта и Сальери за столько веков не утратила своей актуальности. И что интересно, и гений, и злодейство здесь как-то очень удачно совмещаются. И гений может быть откровенно злым. Все неоднозначно, нельзя сказать — вот белое, вот черное, вот хороший человек — а вот плохой.

Качество: HDTV (1080i)
Видео: MPEG-TS AVC, 5580 Кбит/с, 1920x1080
Аудио: Русский (МР2, 2 ch, 192 Кбит/с)
Продолжительность: 02:04:11
Перевод: Профессиональный двухголосый

МедиаИнфо
General
ID : 1 (0x1)
Complete name : D:торрентготовыеИндияShakalakaBoomBoom(2007)HDTV1080p.Generalfilm.ts
Format : MPEG-TS
File size : 5.27 GiB
Duration : 2h 4mn
Overall bit rate mode : Variable
Overall bit rate : 6 075 Kbps

Video
ID : 3106 (0xC22)
Menu ID : 1379 (0x563)
Format : AVC
Format/Info : Advanced Video Codec
Format profile : [email protected]
Format settings, CABAC : Yes
Format settings, ReFrames : 4 frames
Format settings, GOP : M=4, N=32
Codec ID : 27
Duration : 2h 4mn
Bit rate : 5 580 Kbps
Width : 1 920 pixels
Height : 1 080 pixels
Display aspect ratio : 16:9
Frame rate : 25.000 fps
Standard : Component
Color space : YUV
Chroma subsampling : 4:2:0
Bit depth : 8 bits
Scan type : Interlaced
Scan type, store method : Separated fields
Scan order : Top Field First
Bits/(Pixel*Frame) : 0.108
Stream size : 4.84 GiB (92%)
Color range : Limited
Color primaries : BT.709
Transfer characteristics : BT.709
Matrix coefficients : BT.709

Audio
ID : 3107 (0xC23)
Menu ID : 1379 (0x563)
Format : MPEG Audio
Format version : Version 1
Format profile : Layer 2
Codec ID : 3
Duration : 2h 4mn
Bit rate mode : Constant
Bit rate : 192 Kbps
Channel(s) : 2 channels
Sampling rate : 48.0 KHz
Compression mode : Lossy
Delay relative to video : -40ms
Stream size : 171 MiB (3%)
Language : Russian
Скриншоты

 

Вложения

  • 27,2 KB Просмотры: 1
    Личеров 0
    Сидеров 0
    Файлов 1
    Объем 5,3 GB

Привет!

Мы группа людей которые решили помочь другим в решении их проблем, а так же пользователям с поиском самых свежих и качественных инфопродуктов. За 4 с небольшим месяца мы создали этот форум на который заходят ежедневно тысячи человек и посещаемость постоянно растёт. Мы создали панель лицензирования для защиты PHP скриптов от воровства и SEO панель для мониторинга наших сайтов и выбора верной стратегии их развития. Мы надеемся что то что мы создали пригодится Вам и возможно Вы поможете нам развиваться и совершенствоваться вместе с Вами.

Статистика форума

Темы
410.548
Сообщения
469.076
Пользователи
86.089
Новый пользователь
Maxena

Приложения форума для iOS и Android


У ркн там нет власти ;)
Приватные разговоры
Помощь Пользователи
    Вы не присоединились ни к одной комнате.