За последнюю неделю опубликовано 192 новых материалов.
Инструкция новичку Путеводитель по форуму Прокси для Telegram Показать подсказки , это бомба!

Скачать Сердце и души / Heart And Souls (1993) BDRip 1080p | P, A бесплатно через торрент

  • Поучаствуй (в качестве покупателя) в любых пяти совместных покупках (кроме завершённых и "Моментальных") и получи группу "Новичок" навсегда -> ссылка на раздел
  • Получай до 480 рублей за каждого приглашенного пользователя!
    представляем Вам очередное расширение партнерской программы, подробности описаны тут -> ссылка
  • 90% материалов доступно к скачиванию после простой регистрации!
    Если же ты хочешь скачивать материалы без требования оставлять отзывы то получи группу "Новичок", 10 способов повышения описаны тут -> ссылка
  • К сожалению количество битых ссылок растет и мы уже не можем их оперативно восстанавливать поэтому просим помощи у каждого нашего пользователя.
    С сегодняшнего дня, за каждую восстановленную ссылку мы заплатим Вам.
    Подробнее тут -> ссылка
  • Перенесем твои заслуги с другого ресурса!
    Мы понимаем как сложно прокачивать аккаунты на форумах, вроде раскачал аккаунт, а тут появляется ресурс в 100 раз круче но тоже с системой прокачки и снова качать аккаунт...
    Предлагаем вам перенести Ваши заслуги на другом подобном ресурсе к нам.
    Подробности описаны тут -> ссылка
  • Вы можете получать по 2.5% с каждой покупки и продажи на маркете! Подробности в теме Партнёрская программа
Если Вы не хотите скачивать, Вы всегда можетепосмотретьонлайн, просто нажмите кнопку ниже :

Открыть плеер

Torrent_Bot

Торрент-Бот
Бот форума
4 Окт 2016
124
94
20


Информация о фильме
Название: Сердце и души
Оригинальное название: Heart and Souls
Год выхода: 1993
Страна: США
Жанр: Фэнтези, мелодрама, комедия
Продолжительность: 01:43:19

Перевод: Профессиональный (многоголосый закадровый), Авторский (одноголосый закадровый)

Режиссер: Рон Андервуд

В ролях: Роберт Дауни мл., Чарльз Гродин, Элфри Вудард, Кира Седжвик, Том Сайзмор, Дэвид Пэймер, Элизабет Шу, Билл Кэлверт, Лиза Лукас, Шеннон Оррок

О фильме: Смерть часто приходит неожиданно, и человек не успевает сделать самое важное, то, без чего жизнь его не будет завершенной. Так случилось с четырьмя разными людьми, погибшими в 1959 году в автобусе, упавшем с моста в Сан-Франциско. Но у них был шанс совершить один, только один поступок уже после смерти - чтобы они покинули этот мир со спокойной душой.

В фильме звучит композиция Walk Like A Man в исполнении Фрэнки Вэлли и The Four Seasons.



Файл
Качество: BDRip 1080p
Видео: MPEG4 Video (H264), 1920x816, 23.976fps, 11.0 Mbps
Видео кодек: x264
Аудио кодек: AC3
Аудио #1: Русский, Dolby AC3, 48000 Hz, 6ch, 384 kbps - Многоголосый, iTunes Russia
Аудио #2: Русский, Dolby AC3, 48000 Hz, 6ch, 384 kbps - Одноголосый, А. Гаврилов
Аудио #3: Русский, Dolby AC3, 48000 Hz, 6ch, 384 kbps - Одноголосый, В. Горчаков
Аудио #4: Английский, Dolby AC3, 48000 Hz, 6ch, 384 kbps
Формат субтитров: Softsub (SRT)

MediaInfo:
General
Unique ID : 244795258310283536064403290483176550511 (0xB829DA110808F949868337972A08B06F)
Complete name : D:DVDRip1993 Сердце и души1993 Сердце и души.mkv
Format : Matroska
Format version : Version 4
File size : 9.04 GiB
Duration : 1 h 43 min
Overall bit rate : 12.5 Mb/s
Movie name : 1993 Сердце и души/likko
Encoded date : UTC 2019-03-26 09:12:13
Writing application : mkvmerge v8.3.0 ('Over the Horizon') 64bit
Writing library : libebml v1.3.1 + libmatroska v1.4.2
Cover : Yes
Attachments : cover.png

Video
ID : 1
Format : AVC
Format/Info : Advanced Video Codec
Format profile : High@L4.1
Format settings : CABAC / 5 Ref Frames
Format settings, CABAC : Yes
Format settings, ReFrames : 5 frames
Codec ID : V_MPEG4/ISO/AVC
Duration : 1 h 43 min
Bit rate : 11.0 Mb/s
Width : 1 920 pixels
Height : 816 pixels
Display aspect ratio : 2.35:1
Frame rate mode : Constant
Frame rate : 23.976 (24000/1001) FPS
Color space : YUV
Chroma subsampling : 4:2:0
Bit depth : 8 bits
Scan type : Progressive
Bits/(Pixel*Frame) : 0.293
Stream size : 7.93 GiB (88%)
Title : 1993 Сердце и души
Writing library : x264 core 148 r2638 7599210
Encoding settings : cabac=1 / ref=5 / deblock=1:-1:-1 / analyse=0x3:0x133 / me=umh / subme=11 / psy=1 / psy_rd=1.00:0.15 / mixed_ref=1 / me_range=48 / chroma_me=1 / trellis=2 / 8x8dct=1 / cqm=0 / deadzone=21,11 / fast_pskip=0 / chroma_qp_offset=-3 / threads=18 / lookahead_threads=4 / sliced_threads=0 / nr=0 / decimate=1 / interlaced=0 / bluray_compat=0 / constrained_intra=0 / bframes=10 / b_pyramid=2 / b_adapt=2 / b_bias=0 / direct=3 / weightb=1 / open_gop=0 / weightp=2 / keyint=250 / keyint_min=23 / scenecut=40 / intra_refresh=0 / rc=2pass / mbtree=0 / bitrate=11000 / ratetol=1.0 / qcomp=0.60 / qpmin=0 / qpmax=69 / qpstep=4 / cplxblur=20.0 / qblur=0.5 / ip_ratio=1.40 / pb_ratio=1.30 / aq=2:1.00
Language : English
Default : Yes
Forced : No

Audio #1
ID : 2
Format : AC-3
Format/Info : Audio Coding 3
Commercial name : Dolby Digital
Codec ID : A_AC3
Duration : 1 h 43 min
Bit rate mode : Constant
Bit rate : 384 kb/s
Channel(s) : 6 channels
Channel layout : L R C LFE Ls Rs
Sampling rate : 48.0 kHz
Frame rate : 31.250 FPS (1536 SPF)
Bit depth : 16 bits
Compression mode : Lossy
Stream size : 284 MiB (3%)
Title : Многоголосый, iTunes
Language : Russian
Service kind : Complete Main
Default : Yes
Forced : No

Audio #2
ID : 3
Format : AC-3
Format/Info : Audio Coding 3
Commercial name : Dolby Digital
Codec ID : A_AC3
Duration : 1 h 43 min
Bit rate mode : Constant
Bit rate : 384 kb/s
Channel(s) : 6 channels
Channel layout : L R C LFE Ls Rs
Sampling rate : 48.0 kHz
Frame rate : 31.250 FPS (1536 SPF)
Bit depth : 16 bits
Compression mode : Lossy
Stream size : 284 MiB (3%)
Title : Одноголосый, А. Гаврилов
Language : Russian
Service kind : Complete Main
Default : No
Forced : No

Audio #3
ID : 4
Format : AC-3
Format/Info : Audio Coding 3
Commercial name : Dolby Digital
Codec ID : A_AC3
Duration : 1 h 43 min
Bit rate mode : Constant
Bit rate : 384 kb/s
Channel(s) : 6 channels
Channel layout : L R C LFE Ls Rs
Sampling rate : 48.0 kHz
Frame rate : 31.250 FPS (1536 SPF)
Bit depth : 16 bits
Compression mode : Lossy
Stream size : 284 MiB (3%)
Title : Одноголосый, В. Горчаков
Language : Russian
Service kind : Complete Main
Default : No
Forced : No

Audio #4
ID : 5
Format : AC-3
Format/Info : Audio Coding 3
Commercial name : Dolby Digital
Codec ID : A_AC3
Duration : 1 h 43 min
Bit rate mode : Constant
Bit rate : 384 kb/s
Channel(s) : 6 channels
Channel layout : L R C LFE Ls Rs
Sampling rate : 48.0 kHz
Frame rate : 31.250 FPS (1536 SPF)
Bit depth : 16 bits
Compression mode : Lossy
Stream size : 284 MiB (3%)
Language : English
Service kind : Complete Main
Default : No
Forced : No

Text #1
ID : 6
Format : UTF-8
Codec ID : S_TEXT/UTF8
Codec ID/Info : UTF-8 Plain Text
Duration : 1 h 37 min
Bit rate : 110 b/s
Count of elements : 1070
Stream size : 78.6 KiB (0%)
Language : Russian
Default : No
Forced : No

Text #2
ID : 7
Format : UTF-8
Codec ID : S_TEXT/UTF8
Codec ID/Info : UTF-8 Plain Text
Duration : 1 h 34 min
Bit rate : 76 b/s
Count of elements : 1706
Stream size : 52.8 KiB (0%)
Title : 1
Language : English
Default : No
Forced : No

Text #3
ID : 8
Format : UTF-8
Codec ID : S_TEXT/UTF8
Codec ID/Info : UTF-8 Plain Text
Duration : 1 h 35 min
Bit rate : 83 b/s
Count of elements : 1859
Stream size : 58.4 KiB (0%)
Title : 2
Language : English
Default : No
Forced : No

Menu
00:00:00.000 : en:Chapter 01
00:10:00.683 : en:Chapter 02
00:20:01.408 : en:Chapter 03
00:30:02.133 : en:Chapter 04
00:40:02.274 : en:Chapter 05
00:50:03.417 : en:Chapter 06
01:00:03.933 : en:Chapter 07
01:10:03.908 : en:Chapter 08
01:20:05.133 : en:Chapter 09
01:30:05.024 : en:Chapter 10
01:40:06.458 : en:Chapter 11

 

Вложения

  • 46,1 KB Просмотры: 0
    Личеров 0
    Сидеров 0
    Файлов 1
    Объем 9 GB
Ваш e-mail не будет опубликован. Он потребуется для подтверждения Вашего поста.
Оформление текста Нажмите «Ввод», чтобы отправить ответ.

Привет!

Мы группа людей которые решили помочь другим в решении их проблем, а так же пользователям с поиском самых свежих и качественных инфопродуктов. За 4 с небольшим месяца мы создали этот форум на который заходят ежедневно тысячи человек и посещаемость постоянно растёт. Мы создали панель лицензирования для защиты PHP скриптов от воровства и SEO панель для мониторинга наших сайтов и выбора верной стратегии их развития. Мы надеемся что то что мы создали пригодится Вам и возможно Вы поможете нам развиваться и совершенствоваться вместе с Вами.

Статистика форума

Темы
378.714
Сообщения
417.914
Пользователи
49.443
Новый пользователь
New_pride

Приложения форума для iOS и Android


У ркн там нет власти ;)
Приватные разговоры
Помощь Пользователи
    Вы не присоединились ни к одной комнате.