За последнюю неделю опубликовано 49 новых материалов.
Инструкция новичку Путеводитель по форуму Прокси для Telegram Показать подсказки , это бомба!

Скачать Сердце дракона: Возмездие / Dragonheart Vengeance (2020) BDRemux 1080p | P бесплатно через торрент

  • Поучаствуй (в качестве покупателя) в любых пяти совместных покупках (кроме завершённых и "Моментальных") и получи группу "Новичок" навсегда -> ссылка на раздел
  • Получай до 480 рублей за каждого приглашенного пользователя!
    представляем Вам очередное расширение партнерской программы, подробности описаны тут -> ссылка
  • 90% материалов доступно к скачиванию после простой регистрации!
    Если же ты хочешь скачивать материалы без требования оставлять отзывы то получи группу "Новичок", 10 способов повышения описаны тут -> ссылка
  • К сожалению количество битых ссылок растет и мы уже не можем их оперативно восстанавливать поэтому просим помощи у каждого нашего пользователя.
    С сегодняшнего дня, за каждую восстановленную ссылку мы заплатим Вам.
    Подробнее тут -> ссылка
  • Перенесем твои заслуги с другого ресурса!
    Мы понимаем как сложно прокачивать аккаунты на форумах, вроде раскачал аккаунт, а тут появляется ресурс в 100 раз круче но тоже с системой прокачки и снова качать аккаунт...
    Предлагаем вам перенести Ваши заслуги на другом подобном ресурсе к нам.
    Подробности описаны тут -> ссылка
  • Вы можете получать по 2.5% с каждой покупки и продажи на маркете! Подробности в теме Партнёрская программа
Если Вы не хотите скачивать, Вы всегда можетепосмотретьонлайн, просто нажмите кнопку ниже :

Открыть плеер

Torrent_Bot

Торрент-Бот
Бот форума
4 Окт 2016
93
160
20


Информация о фильме
Название: Сердце дракона: Возмездие
Оригинальное название: Dragonheart Vengeance
Год выхода: 2020
Жанр: Фантастика, фэнтези, боевик, драма, приключения
Режиссер: Иван Сильвестрини
В ролях: Джозеф Миллсон, Джек Кэйн, Артуро Муселли, Каролина Карлссон, Там Уильямс, Ричард Эштон, Росс О'Хеннесси, Замок Фабьен Пиолини, Хелена Бонем Картер, Камерон Джек

О фильме:
Лукас — молодой мужчина, который был абсолютно счастливым человеком. Он воспитывал детей вместе с любимой женой и имел неплохой доход от фермерского хозяйства. Но однажды на их ферму напали неизвестные люди, которые не только разгромили все вокруг, но и убили семью Лукаса. Горем убитый мужчина поклялся сделать все возможное, чтобы отомстить за смерть любимых людей. Он отправился в путешествие, надеясь отыскать убийц. По пути герой встречает новых друзей, готовых помочь ему в столь непростом деле. Среди них оказывается опытный наемник Дарий и настоящий дракон. Впереди их ждут очень опасные приключения...




Страна: США
Студия: De Laurentiis, Raffaella De Laurentiis Productions, Universal 1440 Entertainment
Продолжительность: 01:36:53
Перевод: Профессиональный многоголосый | TB3

Файл
Кодек: AVC
Качество: BDRemux 1080p
Видео: MPEG-4 AVC, 34.5 Mбит/с, 1920x1080 , 23.976 кадр/с
Аудио #1: Русский (АС3, 2 ch, 192 Кбит/с, 48.0 KHz) Профессиональный (многоголосый, закадровый) TB3
Аудио #2: Английский (DTS-HD MA, 6 ch, 3562 Кбит/с, 48.0 KHz)
Аудио #3: Французский (DTS, 6 ch, 768 Кбит/с, 48.0 KHz)
Субтитры: английские (*srt, *pgs), французские (*pgs)
► Без Рекламы!
MediaInfo
Источник: Dragonheart.Vengeance.2020.1080p.BluRay.REMUX
General
Unique ID : 194674995875155358407249378137872703319 (0x92750A57850125318476C66501629F57)
Complete name : Dragonheart.Vengeance.2020.1080p.BluRay.REMUX.mkv
Format : Matroska
Format version : Version 4
File size : 26.4 GiB
Duration : 1 h 36 min
Overall bit rate mode : Variable
Overall bit rate : 39.1 Mb/s
Encoded date : UTC 2020-08-17 12:53:14
Writing application : mkvmerge v7.1.0 ('Good Love') 64bit built on Jul 27 2014 13:06:55
Writing library : libebml v1.3.0 + libmatroska v1.4.1

Video
ID : 1
Format : AVC
Format/Info : Advanced Video Codec
Format profile : [email protected]
Format settings : CABAC / 4 Ref Frames
Format settings, CABAC : Yes
Format settings, Reference fra : 4 frames
Codec ID : V_MPEG4/ISO/AVC
Duration : 1 h 36 min
Bit rate mode : Variable
Bit rate : 34.5 Mb/s
Maximum bit rate : 38.6 Mb/s
Width : 1 920 pixels
Height : 1 080 pixels
Display aspect ratio : 16:9
Frame rate mode : Constant
Frame rate : 23.976 (24000/1001) FPS
Color space : YUV
Chroma subsampling : 4:2:0
Bit depth : 8 bits
Scan type : Progressive
Bits/(Pixel*Frame) : 0.694
Stream size : 23.4 GiB (88%)
Language : English
Default : Yes
Forced : No

Audio #1
ID : 2
Format : AC-3
Format/Info : Audio Coding 3
Commercial name : Dolby Digital
Codec ID : A_AC3
Duration : 1 h 36 min
Bit rate mode : Constant
Bit rate : 192 kb/s
Channel(s) : 2 channels
Channel layout : L R
Sampling rate : 48.0 kHz
Frame rate : 31.250 FPS (1536 SPF)
Compression mode : Lossy
Stream size : 133 MiB (0%)
Title : MVO | TB3
Language : Russian
Service kind : Complete Main
Default : Yes
Forced : No

Audio #2
ID : 3
Format : DTS XLL
Format/Info : Digital Theater Systems
Commercial name : DTS-HD Master Audio
Codec ID : A_DTS
Duration : 1 h 36 min
Bit rate mode : Variable
Bit rate : 3 562 kb/s
Channel(s) : 6 channels
Channel layout : C L R Ls Rs LFE
Sampling rate : 48.0 kHz
Frame rate : 93.750 FPS (512 SPF)
Bit depth : 24 bits
Compression mode : Lossless
Stream size : 2.41 GiB (9%)
Language : English
Default : No
Forced : No

Audio #3
ID : 4
Format : DTS
Format/Info : Digital Theater Systems
Codec ID : A_DTS
Duration : 1 h 36 min
Bit rate mode : Constant
Bit rate : 768 kb/s
Channel(s) : 6 channels
Channel layout : C L R Ls Rs LFE
Sampling rate : 48.0 kHz
Frame rate : 93.750 FPS (512 SPF)
Bit depth : 24 bits
Compression mode : Lossy
Stream size : 532 MiB (2%)
Language : French
Default : No
Forced : No

Text #1
ID : 5
Format : UTF-8
Codec ID : S_TEXT/UTF8
Codec ID/Info : UTF-8 Plain Text
Duration : 1 h 31 min
Bit rate : 49 b/s
Count of elements : 1102
Stream size : 33.4 KiB (0%)
Title : English-SRT
Language : English
Default : No
Forced : No

Text #2
ID : 6
Format : PGS
Muxing mode : zlib
Codec ID : S_HDMV/PGS
Codec ID/Info : Picture based subtitle format used on BDs/HD-DVDs
Duration : 1 h 31 min
Bit rate : 19.5 kb/s
Count of elements : 2612
Stream size : 12.8 MiB (0%)
Title : English-PGS
Language : English
Default : No
Forced : No

Text #3
ID : 7
Format : PGS
Muxing mode : zlib
Codec ID : S_HDMV/PGS
Codec ID/Info : Picture based subtitle format used on BDs/HD-DVDs
Duration : 1 h 36 min
Bit rate : 17.0 kb/s
Count of elements : 2214
Stream size : 11.7 MiB (0%)
Title : French-PGS
Language : French
Default : No
Forced : No

Text #4
ID : 8
Format : PGS
Muxing mode : zlib
Codec ID : S_HDMV/PGS
Codec ID/Info : Picture based subtitle format used on BDs/HD-DVDs
Duration : 1 h 36 min
Bit rate : 66 b/s
Count of elements : 12
Stream size : 46.9 KiB (0%)
Title : French-FORCED-PGS
Language : French
Default : No
Forced : No

Menu
00:00:00.000 : en:Chapter 01
00:05:33.416 : en:Chapter 02
00:09:01.457 : en:Chapter 03
00:13:01.655 : en:Chapter 04
00:17:46.106 : en:Chapter 05
00:21:59.443 : en:Chapter 06
00:27:17.385 : en:Chapter 07
00:34:52.298 : en:Chapter 08
00:38:06.617 : en:Chapter 09
00:42:08.943 : en:Chapter 10
00:45:11.667 : en:Chapter 11
00:51:19.701 : en:Chapter 12
00:58:41.476 : en:Chapter 13
01:03:53.037 : en:Chapter 14
01:07:56.113 : en:Chapter 15
01:12:40.189 : en:Chapter 16
01:18:11.478 : en:Chapter 17
01:24:32.734 : en:Chapter 18
01:29:24.650 : en:Chapter 19
01:32:25.915 : en:Chapter 20
Скриншоты
 

Вложения

  • 67 KB Просмотры: 0
    Личеров 0
    Сидеров 0
    Файлов 1
    Объем 26,4 GB

Привет!

Мы группа людей которые решили помочь другим в решении их проблем, а так же пользователям с поиском самых свежих и качественных инфопродуктов. За 4 с небольшим месяца мы создали этот форум на который заходят ежедневно тысячи человек и посещаемость постоянно растёт. Мы создали панель лицензирования для защиты PHP скриптов от воровства и SEO панель для мониторинга наших сайтов и выбора верной стратегии их развития. Мы надеемся что то что мы создали пригодится Вам и возможно Вы поможете нам развиваться и совершенствоваться вместе с Вами.

Статистика форума

Темы
406.640
Сообщения
465.116
Пользователи
84.573
Новый пользователь
sobolsm

Приложения форума для iOS и Android


У ркн там нет власти ;)
Приватные разговоры
Помощь Пользователи
    Вы не присоединились ни к одной комнате.