За последнюю неделю опубликовано 59 новых материалов.
Инструкция новичку Путеводитель по форуму Прокси для Telegram Показать подсказки , это бомба!

Скачать Сердце дракона / Long de xin (1985) BDRip 720p | Unrated | Remastered | L1 бесплатно через торрент

  • Поучаствуй (в качестве покупателя) в любых пяти совместных покупках (кроме завершённых и "Моментальных") и получи группу "Новичок" навсегда -> ссылка на раздел
  • Получай до 480 рублей за каждого приглашенного пользователя!
    представляем Вам очередное расширение партнерской программы, подробности описаны тут -> ссылка
  • 90% материалов доступно к скачиванию после простой регистрации!
    Если же ты хочешь скачивать материалы без требования оставлять отзывы то получи группу "Новичок", 10 способов повышения описаны тут -> ссылка
  • К сожалению количество битых ссылок растет и мы уже не можем их оперативно восстанавливать поэтому просим помощи у каждого нашего пользователя.
    С сегодняшнего дня, за каждую восстановленную ссылку мы заплатим Вам.
    Подробнее тут -> ссылка
  • Перенесем твои заслуги с другого ресурса!
    Мы понимаем как сложно прокачивать аккаунты на форумах, вроде раскачал аккаунт, а тут появляется ресурс в 100 раз круче но тоже с системой прокачки и снова качать аккаунт...
    Предлагаем вам перенести Ваши заслуги на другом подобном ресурсе к нам.
    Подробности описаны тут -> ссылка
  • Вы можете получать по 2.5% с каждой покупки и продажи на маркете! Подробности в теме Партнёрская программа
Если Вы не хотите скачивать, Вы всегда можетепосмотретьонлайн, просто нажмите кнопку ниже :

Открыть плеер

Torrent_Bot

Торрент-Бот
Бот форума
4 Окт 2016
92
163
20


Информация о фильме
Название: Сердце дракона
Оригинальное название: Long de xin
Год выхода: 1985
Жанр: боевик, криминал, комедия
Режиссер: Саммо Хун, Фрут Чан
В ролях: Джеки Чан, Саммо Хунг, Эмили Чу, Хой Ман, Чинг-Йинг Лам, Ланг Чан, Ва Юэнь, Кар Лок Чин, Кори Юэнь, Мелвин Вонг

Описание:
Молодой полицейский Тед, поступивший в спецподразделение полиции, получает первое задание. Во время расследования Тед узнает, что его братец Денни, непутевый толстяк и недотепа, оказался замешанным в торговле краденым. Спасение единственного родного человека становится главным заданием Теда.



Страна: Гонконг, Япония
Продолжительность: 01:39:12
Перевод: Любительский (одноголосый закадровый) + английский + китайский
Субтитры: Нет

Файл
Формат: Matroska
Качество: BDRip 720p | Unrated | Remastered
Видео: 1280x690 at 23.976 fps, [email protected], ~8756 kbps, 0.413 bpp
Аудио №1: AC3, 2 ch, ~256 kbps - | Русский | - VO
Аудио №2: AC3, 1 ch, ~112 kbps - | Английский | - DUB
Аудио №3: AC3, 1 ch, ~112 kbps - | Китайский | -
Аудио №4: AC3, 1 ch, ~112 kbps - | Китайский | -

***Релиз от:-=DoMiNo=-

M/I
x264 [info]: frame I:1105 Avg QP:18.29 size:112842
x264 [info]: frame P:29032 Avg QP:19.43 size: 75380
x264 [info]: frame B:112548 Avg QP:21.36 size: 37321
x264 [info]: consecutive B-frames: 1.6% 2.2% 5.4% 17.8% 17.6% 42.2% 5.5% 1.3% 2.0% 2.3% 1.1% 0.4% 0.5%

General
Format : Matroska
Format version : Version 4
File size : 6.48 GiB
Duration : 1 h 39 min
Overall bit rate : 9 350 kb/s
Movie name : Сердце дракона.(1985).BDRip.720p.[-=DoMiNo=-]
Encoded date : UTC 2020-07-14 18:50:27
Writing application : mkvmerge v48.0.0 ('Fortress Around Your Heart') 64-bit
Writing library : libebml v1.4.0 + libmatroska v1.6.0
Cover : Yes
Attachments : Cover.jpg / Cover 2.jpg

Video
ID : 1
Format : AVC
Format/Info : Advanced Video Codec
Format profile : [email protected]
Format settings : CABAC / 9 Ref Frames
Format settings, CABAC : Yes
Format settings, Reference : 9 frames
Codec ID : V_MPEG4/ISO/AVC
Duration : 1 h 39 min
Bit rate : 8 756 kb/s
Width : 1 280 pixels
Height : 690 pixels
Display aspect ratio : 1.85:1
Frame rate mode : Constant
Frame rate : 23.976 (24000/1001) FPS
Color space : YUV
Chroma subsampling : 4:2:0
Bit depth : 8 bits
Scan type : Progressive
Bits/(Pixel*Frame) : 0.413
Stream size : 6.07 GiB (94%)
Title : -=DoMiNo=-
Writing library : x264 core 161 r3015 4c2aafd
Encoding settings : cabac=1 / ref=9 / deblock=1:-3:-3 / analyse=0x3:0x133 / me=umh / subme=11 / psy=1 / psy_rd=1.00:0.00 / mixed_ref=1 / me_range=32 / chroma_me=1 / trellis=2 / 8x8dct=1 / cqm=0 / deadzone=21,11 / fast_pskip=0 / chroma_qp_offset=-2 / threads=6 / lookahead_threads=1 / sliced_threads=0 / nr=0 / decimate=1 / interlaced=0 / bluray_compat=0 / constrained_intra=0 / bframes=12 / b_pyramid=2 / b_adapt=2 / b_bias=0 / direct=1 / weightb=1 / open_gop=0 / weightp=2 / keyint=250 / keyint_min=23 / scenecut=40 / intra_refresh=0 / rc_lookahead=60 / rc=crf / mbtree=0 / crf=18.0 / qcomp=0.60 / qpmin=0 / qpmax=69 / qpstep=4 / vbv_maxrate=50000 / vbv_bufsize=62500 / crf_max=0.0 / nal_hrd=none / filler=0 / ip_ratio=1.40 / pb_ratio=1.30 / aq=3:0.80
Language : Chinese
Default : Yes
Forced : No
Color range : Limited
Color primaries : BT.709
Transfer characteristics : BT.709
Matrix coefficients : BT.709

Audio #1
ID : 2
Format : AC-3
Format/Info : Audio Coding 3
Commercial name : Dolby Digital
Codec ID : A_AC3
Duration : 1 h 39 min
Bit rate mode : Constant
Bit rate : 256 kb/s
Channel(s) : 2 channels
Channel layout : L R
Sampling rate : 48.0 kHz
Frame rate : 31.250 FPS (1536 SPF)
Compression mode : Lossy
Stream size : 182 MiB (3%)
Title : Неизвестный боец
Language : Russian
Service kind : Complete Main
Default : Yes
Forced : No

Audio #2
ID : 3
Format : AC-3
Format/Info : Audio Coding 3
Commercial name : Dolby Digital
Codec ID : A_AC3
Duration : 1 h 39 min
Bit rate mode : Constant
Bit rate : 112 kb/s
Channel(s) : 1 channel
Channel layout : C
Sampling rate : 48.0 kHz
Frame rate : 31.250 FPS (1536 SPF)
Compression mode : Lossy
Stream size : 79.5 MiB (1%)
Title : DUB
Language : English
Service kind : Complete Main
Default : No
Forced : No

Audio #3
ID : 4
Format : AC-3
Format/Info : Audio Coding 3
Commercial name : Dolby Digital
Codec ID : A_AC3
Duration : 1 h 39 min
Bit rate mode : Constant
Bit rate : 112 kb/s
Channel(s) : 1 channel
Channel layout : C
Sampling rate : 48.0 kHz
Frame rate : 31.250 FPS (1536 SPF)
Compression mode : Lossy
Stream size : 79.5 MiB (1%)
Title : V1
Language : Chinese
Service kind : Complete Main
Default : No
Forced : No

Audio #4
ID : 5
Format : AC-3
Format/Info : Audio Coding 3
Commercial name : Dolby Digital
Codec ID : A_AC3
Duration : 1 h 39 min
Bit rate mode : Constant
Bit rate : 112 kb/s
Channel(s) : 1 channel
Channel layout : C
Sampling rate : 48.0 kHz
Frame rate : 31.250 FPS (1536 SPF)
Compression mode : Lossy
Stream size : 79.5 MiB (1%)
Title : V2
Language : Chinese
Service kind : Complete Main
Default : No
Forced : No

Menu
00:00:00.000 : :Chapter 01
00:06:07.450 : :Chapter 02
00:11:35.945 : :Chapter 03
00:17:40.184 : :Chapter 04
00:26:31.172 : :Chapter 05
00:33:32.760 : :Chapter 06
00:41:37.828 : :Chapter 07
00:50:40.704 : :Chapter 08
00:58:41.684 : :Chapter 09
01:05:22.209 : :Chapter 10
01:13:17.393 : :Chapter 11
01:19:25.927 : :Chapter 12
01:23:06.022 : :Chapter 13
01:27:05.011 : :Chapter 14
01:31:10.214 : :Chapter 15
01:35:57.585 : :Chapter 16
01:39:09.151 : :Chapter 17
Скриншоты
 

Вложения

  • 130,7 KB Просмотры: 0
    Личеров 0
    Сидеров 0
    Файлов 1
    Объем 6,5 GB

Привет!

Мы группа людей которые решили помочь другим в решении их проблем, а так же пользователям с поиском самых свежих и качественных инфопродуктов. За 4 с небольшим месяца мы создали этот форум на который заходят ежедневно тысячи человек и посещаемость постоянно растёт. Мы создали панель лицензирования для защиты PHP скриптов от воровства и SEO панель для мониторинга наших сайтов и выбора верной стратегии их развития. Мы надеемся что то что мы создали пригодится Вам и возможно Вы поможете нам развиваться и совершенствоваться вместе с Вами.

Статистика форума

Темы
406.678
Сообщения
465.125
Пользователи
84.737
Новый пользователь
Mo0dak

Приложения форума для iOS и Android


У ркн там нет власти ;)
Приватные разговоры
Помощь Пользователи
    Вы не присоединились ни к одной комнате.