За последнюю неделю опубликовано 35 новых материалов.
Инструкция новичку Путеводитель по форуму Прокси для Telegram Показать подсказки , это бомба!

Скачать Сердце дракона / DragonHeart (1996) HDDVDRip 720p | P, P2, A бесплатно через торрент

  • Поучаствуй (в качестве покупателя) в любых пяти совместных покупках (кроме завершённых и "Моментальных") и получи группу "Новичок" навсегда -> ссылка на раздел
  • Получай до 480 рублей за каждого приглашенного пользователя!
    представляем Вам очередное расширение партнерской программы, подробности описаны тут -> ссылка
  • 90% материалов доступно к скачиванию после простой регистрации!
    Если же ты хочешь скачивать материалы без требования оставлять отзывы то получи группу "Новичок", 10 способов повышения описаны тут -> ссылка
  • К сожалению количество битых ссылок растет и мы уже не можем их оперативно восстанавливать поэтому просим помощи у каждого нашего пользователя.
    С сегодняшнего дня, за каждую восстановленную ссылку мы заплатим Вам.
    Подробнее тут -> ссылка
  • Перенесем твои заслуги с другого ресурса!
    Мы понимаем как сложно прокачивать аккаунты на форумах, вроде раскачал аккаунт, а тут появляется ресурс в 100 раз круче но тоже с системой прокачки и снова качать аккаунт...
    Предлагаем вам перенести Ваши заслуги на другом подобном ресурсе к нам.
    Подробности описаны тут -> ссылка
  • Вы можете получать по 2.5% с каждой покупки и продажи на маркете! Подробности в теме Партнёрская программа
Если Вы не хотите скачивать, Вы всегда можетепосмотретьонлайн, просто нажмите кнопку ниже :

Открыть плеер

Torrent_Bot

Торрент-Бот
Бот форума
4 Окт 2016
96
155
20

Информация о фильме
Название: Сердце дракона
Оригинальное название: Dragonheart
Год выхода: 1996
Жанр: Фэнтези, боевик, драма, приключения
Режиссер: Роб Коэн
В ролях: Деннис Куэйд, Шон Коннери, Дэвид Тьюлис, Пит Постлетуэйт, Дина Мейер, Джейсон Айзекс, Брайан Томпсон, Ли Оакес, Вульф Кристиан, Терри О’Нил, Ева Веймелкова, Милан Бахул, Петер Хрич, Сандра Ковачикова, Кайл Коэн, Том Бэйкер, Джули Кристи, Джон Гилгуд, Бадди Куэйд

О фильме:
Чеpное сеpдце бьется в гpуди молодого коpоля Айтона, сеющего вокpуг себя беззаконие и зло. Наставник коpоля, рыцаpь Стаpого Завета Боyин, отпpавляется в пyть, чтобы найти и убить дpакона, котоpого он считает повинным в жестокости Айтона.


Страна: США
Студия: Universal Pictures
Продолжительность: 01:42:59
Перевод: Профессиональный многоголосый, профессиональный двухголосый, авторский одноголосый


MPAA: PG-13 - Детям до 13 лет просмотр не желателен



Файл
Источник: HQFans
Качество: HD DVDRip 720p (by HQFans)
Контейнер: MKV

Видео: 1280x544, AVC, 23,976 fps, 5 443 kbps
Аудио №1: русский / AC3 / 5.1 / 48 kHz / 640 kbps / 16 bit || Профессиональный (многоголосый, закадровый){Киномания}
Аудио №2: русский / AC3 / 5.1 / 48 kHz / 384 kbps / 16 bit || Профессиональный (многоголосый, закадровый){R5}
Аудио №3: русский / AC3 / 2.0 / 48 kHz / 192 kbps / 16 bit || Профессиональный (многоголосый, закадровый){ОРТ}
Аудио №4: русский / AC3 / 2.0 / 48 kHz / 192 kbps / 16 bit || Профессиональный (многоголосый, закадровый){СТС}
Аудио №5: русский / AC3 / 2.0 / 48 kHz / 192 kbps / 16 bit || Профессиональный (многоголосый, закадровый){Премьер Видеофильм}
Аудио №6: русский / AC3 / 5.1 / 48 kHz / 640 kbps / 16 bit || Профессиональный (двуголосый, закадровый){П. Гланц и И. Королева}
Аудио №7: русский / AC3 / 5.1 / 48 kHz / 640 kbps / 16 bit || Авторский (одноголосый закадровый){П. Санаев}
Аудио №8: русский / AC3 / 5.1 / 48 kHz / 448 kbps / 16 bit || Авторский (одноголосый закадровый){Ю. Живов}
Аудио №9: русский / AC3 / 5.1 / 48 kHz / 448 kbps / 16 bit || Авторский (одноголосый закадровый){Яковлев (Самарский)}
Аудио №10: русский / AC3 / 2.0 / 48 kHz / 192 kbps / 16 bit || Авторский (одноголосый закадровый){С. Визгунов}
Аудио №11: русский / AC3 / 2.0 / 48 kHz / 192 kbps / 16 bit || Авторский (одноголосый закадровый){С. Кузнецов}
Аудио №12: украинский / AC3 / 2.0 / 48 kHz / 192 kbps / 16 bit || Профессиональный (многоголосый, закадровый)
Аудио №13: английский / AC3 / 5.1 / 48 kHz / 640 kbps / 16 bit |Original from BD|
Навигация по главам: 18 шт. (подписанные)

Скриншоты:


Media Info
General
Unique ID : 223180775434253400273018901806893669952 (0xA7E70DC89785704FA5AF421266269E40)
Complete name : Сердце дракона__Dragonheart [1996.HD-DVDRip.720p.5xMVO.DVO.5xAVO.Ukr.Eng.Subs]-HQFans.mkv
Format : Matroska
Format version : Version 2
File size : 7.51 GiB
Duration : 1h 42mn
Overall bit rate : 10.4 Mbps
Movie name : HQFans
Encoded date : UTC 2012-06-29 07:21:52
Writing application : mkvmerge v5.6.0 ('Kenya Kane') built on May 27 2012 16:44:04
Writing library : libebml v1.2.3 + libmatroska v1.3.0
Attachment : Yes

Video
ID : 1
Format : AVC
Format/Info : Advanced Video Codec
Format profile : [email protected]
Format settings, CABAC : Yes
Format settings, ReFrames : 12 frames
Codec ID : V_MPEG4/ISO/AVC
Duration : 1h 42mn
Bit rate : 5 240 Kbps
Width : 1 280 pixels
Height : 544 pixels
Display aspect ratio : 2.35:1
Frame rate : 23.976 fps
Color space : YUV
Chroma subsampling : 4:2:0
Bit depth : 8 bits
Scan type : Progressive
Bits/(Pixel*Frame) : 0.314
Stream size : 3.77 GiB (50%)
Title : Сердце дракона [1996, HD DVDRip/720p] || ZUNE & [email protected]
Writing library : x264 core 120 r2164 da19765
Encoding settings : cabac=1 / ref=12 / deblock=1:-3:-3 / analyse=0x3:0x113 / me=tesa / subme=11 / psy=1 / psy_rd=1.00:0.00 / mixed_ref=1 / me_range=24 / chroma_me=1 / trellis=2 / 8x8dct=1 / cqm=0 / deadzone=21,11 / fast_pskip=1 / chroma_qp_offset=-2 / threads=12 / sliced_threads=0 / nr=0 / decimate=1 / interlaced=0 / bluray_compat=0 / constrained_intra=0 / bframes=16 / b_pyramid=2 / b_adapt=2 / b_bias=0 / direct=3 / weightb=1 / open_gop=0 / weightp=2 / keyint=240 / keyint_min=24 / scenecut=40 / intra_refresh=0 / rc_lookahead=40 / rc=crf / mbtree=0 / crf=16.7 / qcomp=0.60 / qpmin=0 / qpmax=69 / qpstep=4 / vbv_maxrate=40000 / vbv_bufsize=30000 / crf_max=0.0 / nal_hrd=none / ip_ratio=1.40 / pb_ratio=1.30 / aq=2:1.10
Language : English
Default : Yes
Forced : No
Color primaries : BT.709-5, BT.1361, IEC 61966-2-4, SMPTE RP177
Transfer characteristics : BT.709-5, BT.1361
Matrix coefficients : BT.709-5, BT.1361, IEC 61966-2-4 709, SMPTE RP177

Audio #1
ID : 2
Format : AC-3
Format/Info : Audio Coding 3
Mode extension : CM (complete main)
Codec ID : A_AC3
Duration : 1h 42mn
Bit rate mode : Constant
Bit rate : 640 Kbps
Channel(s) : 6 channels
Channel positions : Front: L C R, Side: L R, LFE
Sampling rate : 48.0 KHz
Bit depth : 16 bits
Compression mode : Lossy
Stream size : 471 MiB (6%)
Title : MVO {Киномания} [AC3 [email protected]]
Language : Russian
Default : Yes
Forced : No

Audio #2
ID : 3
Format : AC-3
Format/Info : Audio Coding 3
Mode extension : CM (complete main)
Codec ID : A_AC3
Duration : 1h 42mn
Bit rate mode : Constant
Bit rate : 384 Kbps
Channel(s) : 6 channels
Channel positions : Front: L C R, Side: L R, LFE
Sampling rate : 48.0 KHz
Bit depth : 16 bits
Compression mode : Lossy
Stream size : 283 MiB (4%)
Title : MVO {R5} [AC3 [email protected]]
Language : Russian
Default : No
Forced : No

Audio #3
ID : 4
Format : AC-3
Format/Info : Audio Coding 3
Mode extension : CM (complete main)
Codec ID : A_AC3
Duration : 1h 42mn
Bit rate mode : Constant
Bit rate : 192 Kbps
Channel(s) : 2 channels
Channel positions : Front: L R
Sampling rate : 48.0 KHz
Bit depth : 16 bits
Compression mode : Lossy
Stream size : 141 MiB (2%)
Title : MVO {ОРТ} [AC3 [email protected]]
Language : Russian
Default : No
Forced : No

Audio #4
ID : 5
Format : AC-3
Format/Info : Audio Coding 3
Mode extension : CM (complete main)
Codec ID : A_AC3
Duration : 1h 42mn
Bit rate mode : Constant
Bit rate : 192 Kbps
Channel(s) : 2 channels
Channel positions : Front: L R
Sampling rate : 48.0 KHz
Bit depth : 16 bits
Compression mode : Lossy
Stream size : 141 MiB (2%)
Title : MVO {СТС} [AC3 [email protected]]
Language : Russian
Default : No
Forced : No

Audio #5
ID : 6
Format : AC-3
Format/Info : Audio Coding 3
Mode extension : CM (complete main)
Codec ID : A_AC3
Duration : 1h 42mn
Bit rate mode : Constant
Bit rate : 192 Kbps
Channel(s) : 2 channels
Channel positions : Front: L R
Sampling rate : 48.0 KHz
Bit depth : 16 bits
Compression mode : Lossy
Stream size : 141 MiB (2%)
Title : MVO {Премьер Видеофильм} [AC3 [email protected]]
Language : Russian
Default : No
Forced : No

Audio #6
ID : 7
Format : AC-3
Format/Info : Audio Coding 3
Mode extension : CM (complete main)
Codec ID : A_AC3
Duration : 1h 42mn
Bit rate mode : Constant
Bit rate : 640 Kbps
Channel(s) : 6 channels
Channel positions : Front: L C R, Side: L R, LFE
Sampling rate : 48.0 KHz
Bit depth : 16 bits
Compression mode : Lossy
Stream size : 471 MiB (6%)
Title : DVO {П. Гланц и И. Королева} [AC3 [email protected]]
Language : Russian
Default : No
Forced : No

Audio #7
ID : 8
Format : AC-3
Format/Info : Audio Coding 3
Mode extension : CM (complete main)
Codec ID : A_AC3
Duration : 1h 42mn
Bit rate mode : Constant
Bit rate : 640 Kbps
Channel(s) : 6 channels
Channel positions : Front: L C R, Side: L R, LFE
Sampling rate : 48.0 KHz
Bit depth : 16 bits
Compression mode : Lossy
Stream size : 471 MiB (6%)
Title : AVO {П. Санаев} [AC3 [email protected]]
Language : Russian
Default : No
Forced : No

Audio #8
ID : 9
Format : AC-3
Format/Info : Audio Coding 3
Mode extension : CM (complete main)
Codec ID : A_AC3
Duration : 1h 42mn
Bit rate mode : Constant
Bit rate : 448 Kbps
Channel(s) : 6 channels
Channel positions : Front: L C R, Side: L R, LFE
Sampling rate : 48.0 KHz
Bit depth : 16 bits
Compression mode : Lossy
Stream size : 330 MiB (4%)
Title : AVO {Ю. Живов} [AC3 [email protected]]
Language : Russian
Default : No
Forced : No

Audio #9
ID : 10
Format : AC-3
Format/Info : Audio Coding 3
Mode extension : CM (complete main)
Codec ID : A_AC3
Duration : 1h 42mn
Bit rate mode : Constant
Bit rate : 448 Kbps
Channel(s) : 6 channels
Channel positions : Front: L C R, Side: L R, LFE
Sampling rate : 48.0 KHz
Bit depth : 16 bits
Compression mode : Lossy
Stream size : 330 MiB (4%)
Title : AVO {Яковлев (Самарский)} [AC3 [email protected]]
Language : Russian
Default : No
Forced : No

Audio #10
ID : 11
Format : AC-3
Format/Info : Audio Coding 3
Mode extension : CM (complete main)
Codec ID : A_AC3
Duration : 1h 42mn
Bit rate mode : Constant
Bit rate : 192 Kbps
Channel(s) : 2 channels
Channel positions : Front: L R
Sampling rate : 48.0 KHz
Bit depth : 16 bits
Compression mode : Lossy
Stream size : 141 MiB (2%)
Title : AVO {С. Визгунов} [AC3 [email protected]]
Language : Russian
Default : No
Forced : No

Audio #11
ID : 12
Format : AC-3
Format/Info : Audio Coding 3
Mode extension : CM (complete main)
Codec ID : A_AC3
Duration : 1h 42mn
Bit rate mode : Constant
Bit rate : 192 Kbps
Channel(s) : 2 channels
Channel positions : Front: L R
Sampling rate : 48.0 KHz
Bit depth : 16 bits
Compression mode : Lossy
Stream size : 141 MiB (2%)
Title : AVO {С. Кузнецов} [AC3 [email protected]]
Language : Russian
Default : No
Forced : No

Audio #12
ID : 13
Format : AC-3
Format/Info : Audio Coding 3
Mode extension : CM (complete main)
Codec ID : A_AC3
Duration : 1h 42mn
Bit rate mode : Constant
Bit rate : 192 Kbps
Channel(s) : 2 channels
Channel positions : Front: L R
Sampling rate : 48.0 KHz
Bit depth : 16 bits
Compression mode : Lossy
Stream size : 141 MiB (2%)
Title : MVO [AC3 [email protected]]
Language : Ukrainian
Default : No
Forced : No

Audio #13
ID : 14
Format : AC-3
Format/Info : Audio Coding 3
Mode extension : CM (complete main)
Codec ID : A_AC3
Duration : 1h 42mn
Bit rate mode : Constant
Bit rate : 640 Kbps
Channel(s) : 6 channels
Channel positions : Front: L C R, Side: L R, LFE
Sampling rate : 48.0 KHz
Bit depth : 16 bits
Compression mode : Lossy
Stream size : 471 MiB (6%)
Title : Original [AC3 [email protected]]
Language : English
Default : No
Forced : No

Text #1
ID : 15
Format : UTF-8
Codec ID : S_TEXT/UTF8
Codec ID/Info : UTF-8 Plain Text
Title : Full {R5}
Language : Russian
Default : No
Forced : No

Text #2
ID : 16
Format : UTF-8
Codec ID : S_TEXT/UTF8
Codec ID/Info : UTF-8 Plain Text
Title : Full {Киномания}
Language : Russian
Default : No
Forced : No

Text #3
ID : 17
Format : UTF-8
Codec ID : S_TEXT/UTF8
Codec ID/Info : UTF-8 Plain Text
Title : Full {П. Гланц}
Language : Russian
Default : No
Forced : No

Text #4
ID : 18
Format : UTF-8
Codec ID : S_TEXT/UTF8
Codec ID/Info : UTF-8 Plain Text
Title : SDH
Language : English
Default : No
Forced : No

Menu
00:00:00.000 : en:Slain King (Main Titles)
00:08:00.021 : en:Resurrected
00:14:38.752 : en:Above the Code
00:17:28.464 : en:Dragon Hunting
00:21:17.025 : en:King's Sport
00:24:56.328 : en:Into the Mouth of Death
00:30:04.427 : en:The Last One
00:38:07.994 : en:Avenging Father's Fate
00:43:38.157 : en:A Special Heart
00:50:10.298 : en:The King's Lesson
00:58:24.834 : en:In League with the Dragon
01:04:54.473 : en:Sworn to Valor
01:10:06.827 : en:A Knight's Army
01:15:03.707 : en:peasant's Revolt
01:20:45.465 : en:Save The Dragon
01:25:43.805 : en:Death to the King
01:30:35.012 : en:To the Stars
01:36:56.560 : en:End Titles
x264.log
---[NoImage] raw [info]: 1280x544p 1:1 @ 24000/1001 fps (cfr)
---[NoImage] x264 [info]: using SAR=1/1
---[NoImage] x264 [info]: using cpu capabilities: MMX2 SSE2Fast SSSE3 FastShuffle SSE4.2 AVX
---[NoImage] x264 [info]: profile High, level 4.1
---[NoImage]
---[NoImage] x264 [info]: frame I:1044 Avg QP:15.55 size:105866
---[NoImage] x264 [info]: frame P:32561 Avg QP:16.78 size: 49625
---[NoImage] x264 [info]: frame B:114559 Avg QP:18.96 size: 21629
---[NoImage] x264 [info]: consecutive B-frames: 2.0% 2.7% 6.5% 27.7% 16.8% 32.7% 4.7% 3.1% 1.0% 1.2% 0.4% 0.4% 0.2% 0.3% 0.1% 0.1% 0.1%
---[NoImage] x264 [info]: mb I I16..4: 4.4% 84.3% 11.2%
---[NoImage] x264 [info]: mb P I16..4: 0.5% 23.1% 1.5% P16..4: 23.8% 30.3% 14.4% 0.0% 0.0% skip: 6.4%
---[NoImage] x264 [info]: mb B I16..4: 0.1% 3.1% 0.2% B16..8: 32.7% 26.1% 6.5% direct: 8.8% skip:22.4% L0:42.7% L1:40.2% BI:17.0%
---[NoImage] x264 [info]: 8x8 transform intra:91.5% inter:58.5%
---[NoImage] x264 [info]: direct mvs spatial:100.0% temporal:0.0%
---[NoImage] x264 [info]: coded y,uvDC,uvAC intra: 96.2% 85.7% 59.4% inter: 45.8% 28.0% 3.5%
---[NoImage] x264 [info]: i16 v,h,dc,p: 44% 15% 12% 29%
---[NoImage] x264 [info]: i8 v,h,dc,ddl,ddr,vr,hd,vl,hu: 7% 7% 8% 10% 15% 13% 13% 12% 14%
---[NoImage] x264 [info]: i4 v,h,dc,ddl,ddr,vr,hd,vl,hu: 7% 6% 6% 9% 18% 16% 15% 11% 13%
---[NoImage] x264 [info]: i8c dc,h,v,p: 41% 24% 17% 17%
---[NoImage] x264 [info]: Weighted P-Frames: Y:10.0% UV:3.0%
---[NoImage] x264 [info]: ref P L0: 42.8% 13.1% 16.5% 6.5% 5.3% 3.8% 3.4% 2.0% 1.9% 1.5% 1.5% 1.4% 0.3% 0.0%
---[NoImage] x264 [info]: ref B L0: 73.2% 11.2% 5.3% 2.7% 2.0% 1.7% 1.4% 0.9% 0.8% 0.5% 0.2%
---[NoImage] x264 [info]: ref B L1: 93.2% 6.8%
---[NoImage] x264 [info]: kb/s:5442.56
---[NoImage] encoded 148164 frames, 3.86 fps, 5442.56 kb/s
ЦитатаКто-то писал:

Дорожки №1, 6, 7 получены наложением выделенного/чистого голоса на центр декодированного DTS-HD-MA;
За многоголосые озвучки ОРТ, СТС и Премьер спасибо utas, Diablo и Solarolya;
За авторские озвучки Визгунова, Кузнецова и Живова спасибо SJC, Серый75 и multmir;
За работу над звуком и субтитрами огромное спасибо Diablo.
 

Вложения

  • 19,9 KB Просмотры: 1
    Личеров 0
    Сидеров 0
    Файлов 1
    Объем 7,5 GB

Привет!

Мы группа людей которые решили помочь другим в решении их проблем, а так же пользователям с поиском самых свежих и качественных инфопродуктов. За 4 с небольшим месяца мы создали этот форум на который заходят ежедневно тысячи человек и посещаемость постоянно растёт. Мы создали панель лицензирования для защиты PHP скриптов от воровства и SEO панель для мониторинга наших сайтов и выбора верной стратегии их развития. Мы надеемся что то что мы создали пригодится Вам и возможно Вы поможете нам развиваться и совершенствоваться вместе с Вами.

Статистика форума

Темы
406.510
Сообщения
464.512
Пользователи
82.740
Новый пользователь
aksinya10

Приложения форума для iOS и Android


У ркн там нет власти ;)
Приватные разговоры
Помощь Пользователи
    Вы не присоединились ни к одной комнате.