За последнюю неделю опубликовано 30 новых материалов.
Инструкция новичку Путеводитель по форуму Прокси для Telegram Показать подсказки , это бомба!

Скачать Сердце дракона / DragonHeart (1996) BDRip 720p от NoLimits-Team | P бесплатно через торрент

  • Поучаствуй (в качестве покупателя) в любых пяти совместных покупках (кроме завершённых и "Моментальных") и получи группу "Новичок" навсегда -> ссылка на раздел
  • Получай до 480 рублей за каждого приглашенного пользователя!
    представляем Вам очередное расширение партнерской программы, подробности описаны тут -> ссылка
  • 90% материалов доступно к скачиванию после простой регистрации!
    Если же ты хочешь скачивать материалы без требования оставлять отзывы то получи группу "Новичок", 10 способов повышения описаны тут -> ссылка
  • К сожалению количество битых ссылок растет и мы уже не можем их оперативно восстанавливать поэтому просим помощи у каждого нашего пользователя.
    С сегодняшнего дня, за каждую восстановленную ссылку мы заплатим Вам.
    Подробнее тут -> ссылка
  • Перенесем твои заслуги с другого ресурса!
    Мы понимаем как сложно прокачивать аккаунты на форумах, вроде раскачал аккаунт, а тут появляется ресурс в 100 раз круче но тоже с системой прокачки и снова качать аккаунт...
    Предлагаем вам перенести Ваши заслуги на другом подобном ресурсе к нам.
    Подробности описаны тут -> ссылка
  • Вы можете получать по 2.5% с каждой покупки и продажи на маркете! Подробности в теме Партнёрская программа
Если Вы не хотите скачивать, Вы всегда можетепосмотретьонлайн, просто нажмите кнопку ниже :

Открыть плеер

Torrent_Bot

Торрент-Бот
Бот форума
4 Окт 2016
93
160
20

Информация о фильме
Название: Сердце дракона
Оригинальное название: DragonHeart
Год выхода: 1996
Жанр: Фэнтези, драма, приключения
Режиссер: Роб Коэн
Выпущено: США
Продолжительность: 01:43:00
Перевод: Многоголосый / П.Гланц + И. Королёва
В ролях: Деннис Куэйд, Дэвид Тьюлис, Пит Постлетуэйт, Дина Мейер, Джейсон Айзекс, Брайан Томпсон, Ли Оакес, Вульф Кристиан, Терри О`Нейлл

Сюжет фильма
Чеpное сеpдце бьется в гpуди молодого коpоля Айтона, сеющего вокpуг себя беззаконие и зло. Наставник коpоля, рыцаpь Стаpого Завета Боyин, отпpавляется в пyть, чтобы найти и убить дpакона, котоpого он считает повинным в жестокости Айтона.

Файл
Качество: BDRip 720p (DVD5) (исходник Blu-Ray Disc)
Видео: 1280x544, 5180 Кбит/сек, 23,976 кадр/сек, AVC, x264, [email protected], 2.35:1, 0.310 Бит/[Пиксели*Кадры], 2pass
Аудио 1: AC-3, 448 Кбит/сек, 6 канала(ов), 48,0 КГц - Многоголосый (П.Гланц + И. Королёва) (Установлен по умолчанию)
Аудио 2: AC-3, 448 Кбит/сек, 6 канала(ов), 48,0 КГц - Английский
Субтитры: Русские | Полные
Чаптеры: Есть



Скриншоты
MediaInfo
Format : Matroska
Format version : Version 4 / Version 2
File size : 4.37 GiB
Duration : 1h 43mn
Overall bit rate : 6 075 Kbps
Movie name : Сердце дракона.(1996).BDRip.720p.(DVD5).[NoLimits-Team]
Encoded date : UTC 2013-04-22 11:41:33
Writing application : mkvmerge v6.0.0 ('Coming Up For Air') built on Jan 20 2013 09:52:00
Writing library : libebml v1.3.0 + libmatroska v1.4.0

Video
ID : 1
Format : AVC
Format/Info : Advanced Video Codec
Format profile : [email protected]
Format settings, CABAC : Yes
Format settings, ReFrames : 12 frames
Codec ID : V_MPEG4/ISO/AVC
Duration : 1h 43mn
Bit rate : 5 180 Kbps
Width : 1 280 pixels
Height : 544 pixels
Display aspect ratio : 2.35:1
Frame rate mode : Constant
Frame rate : 23.976 fps
Color space : YUV
Chroma subsampling : 4:2:0
Bit depth : 8 bits
Scan type : Progressive
Bits/(Pixel*Frame) : 0.310
Stream size : 3.64 GiB (83%)
Title : Сердце дракона.(1996).BDRip.720p.(DVD5).[NoLimits-Team]
Writing library : x264 core 130 r2273 b3065e6
Encoding settings : cabac=1 / ref=12 / deblock=1:0:0 / analyse=0x3:0x133 / me=umh / subme=11 / psy=1 / psy_rd=1.00:0.00 / mixed_ref=1 / me_range=64 / chroma_me=1 / trellis=2 / 8x8dct=1 / cqm=0 / deadzone=21,11 / fast_pskip=0 / chroma_qp_offset=-2 / threads=9 / lookahead_threads=2 / sliced_threads=0 / nr=0 / decimate=1 / interlaced=0 / bluray_compat=0 / constrained_intra=0 / bframes=14 / b_pyramid=2 / b_adapt=2 / b_bias=0 / direct=3 / weightb=1 / open_gop=0 / weightp=2 / keyint=240 / keyint_min=23 / scenecut=40 / intra_refresh=0 / rc_lookahead=60 / rc=2pass / mbtree=1 / bitrate=5180 / ratetol=1.0 / qcomp=0.60 / qpmin=0 / qpmax=69 / qpstep=4 / cplxblur=20.0 / qblur=0.5 / ip_ratio=1.40 / aq=1:1.00
Language : English
Default : Yes
Forced : No

Audio #1
ID : 2
Format : AC-3
Format/Info : Audio Coding 3
Mode extension : CM (complete main)
Format settings, Endianness : Big
Codec ID : A_AC3
Duration : 1h 43mn
Bit rate mode : Constant
Bit rate : 448 Kbps
Channel(s) : 6 channels
Channel positions : Front: L C R, Side: L R, LFE
Sampling rate : 48.0 KHz
Bit depth : 16 bits
Compression mode : Lossy
Stream size : 330 MiB (7%)
Title : Многоголосый / П.Гланц + И. Королёва
Language : Russian
Default : Yes
Forced : No

Audio #2
ID : 3
Format : AC-3
Format/Info : Audio Coding 3
Mode extension : CM (complete main)
Format settings, Endianness : Big
Codec ID : A_AC3
Duration : 1h 43mn
Bit rate mode : Constant
Bit rate : 448 Kbps
Channel(s) : 6 channels
Channel positions : Front: L C R, Side: L R, LFE
Sampling rate : 48.0 KHz
Bit depth : 16 bits
Compression mode : Lossy
Stream size : 330 MiB (7%)
Title : Английский
Language : English
Default : No
Forced : No

Text
ID : 4
Format : UTF-8
Codec ID : S_TEXT/UTF8
Codec ID/Info : UTF-8 Plain Text
Title : Русские (полные)
Language : Russian
Default : No
Forced : No

Menu
00:00:00.000 : :Chapter 01
00:08:00.021 : :Chapter 02
00:14:38.752 : :Chapter 03
00:17:28.464 : :Chapter 04
00:21:17.025 : :Chapter 05
00:24:56.328 : :Chapter 06
00:30:04.427 : :Chapter 07
00:38:07.994 : :Chapter 08
00:43:38.157 : :Chapter 09
00:50:10.298 : :Chapter 10
00:58:24.834 : :Chapter 11
01:04:54.473 : :Chapter 12
01:10:06.827 : :Chapter 13
01:15:03.707 : :Chapter 14
01:20:45.465 : :Chapter 15
01:25:43.805 : :Chapter 16
01:30:35.012 : :Chapter 17
01:36:56.560 : :Chapter 18
 

Вложения

  • 12,1 KB Просмотры: 1
    Личеров 0
    Сидеров 0
    Файлов 1
    Объем 4,4 GB

Привет!

Мы группа людей которые решили помочь другим в решении их проблем, а так же пользователям с поиском самых свежих и качественных инфопродуктов. За 4 с небольшим месяца мы создали этот форум на который заходят ежедневно тысячи человек и посещаемость постоянно растёт. Мы создали панель лицензирования для защиты PHP скриптов от воровства и SEO панель для мониторинга наших сайтов и выбора верной стратегии их развития. Мы надеемся что то что мы создали пригодится Вам и возможно Вы поможете нам развиваться и совершенствоваться вместе с Вами.

Статистика форума

Темы
406.600
Сообщения
465.010
Пользователи
84.359
Новый пользователь
Fftujn

Приложения форума для iOS и Android


У ркн там нет власти ;)
Приватные разговоры
Помощь Пользователи
    Вы не присоединились ни к одной комнате.