За последнюю неделю опубликовано 29 новых материалов.
Инструкция новичку Путеводитель по форуму Прокси для Telegram Показать подсказки , это бомба!

Скачать Сердца трёх (1992) SATRip | Киноверсия бесплатно через торрент

  • Поучаствуй (в качестве покупателя) в любых пяти совместных покупках (кроме завершённых и "Моментальных") и получи группу "Новичок" навсегда -> ссылка на раздел
  • Получай до 480 рублей за каждого приглашенного пользователя!
    представляем Вам очередное расширение партнерской программы, подробности описаны тут -> ссылка
  • 90% материалов доступно к скачиванию после простой регистрации!
    Если же ты хочешь скачивать материалы без требования оставлять отзывы то получи группу "Новичок", 10 способов повышения описаны тут -> ссылка
  • К сожалению количество битых ссылок растет и мы уже не можем их оперативно восстанавливать поэтому просим помощи у каждого нашего пользователя.
    С сегодняшнего дня, за каждую восстановленную ссылку мы заплатим Вам.
    Подробнее тут -> ссылка
  • Перенесем твои заслуги с другого ресурса!
    Мы понимаем как сложно прокачивать аккаунты на форумах, вроде раскачал аккаунт, а тут появляется ресурс в 100 раз круче но тоже с системой прокачки и снова качать аккаунт...
    Предлагаем вам перенести Ваши заслуги на другом подобном ресурсе к нам.
    Подробности описаны тут -> ссылка
  • Вы можете получать по 2.5% с каждой покупки и продажи на маркете! Подробности в теме Партнёрская программа
Если Вы не хотите скачивать, Вы всегда можетепосмотретьонлайн, просто нажмите кнопку ниже :

Открыть плеер

Torrent_Bot

Торрент-Бот
Бот форума
4 Окт 2016
93
155
20
Информация о фильме
Название: Сердца трёх
Год выхода: 1992
Жанр: Приключения, мелодрама
Режиссёр: Владимир Попков
В ролях: Алёна Хмельницкая, Сергей Жигунов, Владимир Шевельков, Рафаэль Котанджян, Пирет Мянгел, Игорь Кваша, Дмитрий Харатьян, Лиза Доля, Альгимантас Масюлис, Гедиминас Гирдвайнис, Георгий Дворников, Михаил Светин, Владимир Сошальский, Артур Ли, Алексей Колесник, Анатолий Белый, Михаил Шевчук, Владимир Уан-Зо-Ли, Сейдулла Молдаханов, Эрменгельд Коновалов, Юрий Критенко, Вадим Вильский, Виктор Демерташ, Сергей Пономаренко, Юрий Рудченко, Лев Окрент, Давид Бабаев, Людмила Лобза, Ирина Мельник, Борис Небиеридзе, Александр Итыгилов мл., Константин Шафоренко, Мария Капнист, Александр Гаврилов

О фильме: Молодой миллионер Фрэнсис Морган вместе со своим обанкротившимся дальним родственником Генри Морганом отправляется на поиски старинного клада, спрятанного их далеким предком-пиратом. Но путешествие становится еще интересней, когда к ним решает присоединиться прелестная Леонсия, к чарам которой не равнодушны оба молодых человека...

Доп. информация: Данная раздача - это не мини-сериал из 5 серий, это киновариант продолжительностью 01:44:40



Страна: Россия, Украина
Студия: Киностудия им. А.Довженко
Продолжительность: 01:44:40
Перевод: Не требуется (оригинальный)

Файл
Формат: avi
Качество: SATRip (DVB)
Видео: XviD, 624х384, 25fps, 1780kbps
Аудио: MPEG Layer 3, 2ch, 48000Hz, 192kbps



MediaInfo
General
Complete name : Serdtsa.Treh.1992.O.SATRip.1400.CurHaJI.KV.avi
Format : AVI
Format/Info : Audio Video Interleave
File size : 1.45 GiB
Duration : 1h 44mn
Overall bit rate : 1 982 Kbps
Movie name : Serdtsa.Treh.1992.O.SATRip.1400.CurHaJI.KV
Writing application : VirtualDubMod 1.5.10.3 | www.virtualdub-fr.org || (build 2550/release)
Writing library : VirtualDub build 35491/release

Video
ID : 0
Format : MPEG-4 Visual
Format profile : Advanced Simple@L5
Format settings, BVOP : 1
Format settings, QPel : No
Format settings, GMC : No warppoints
Format settings, Matrix : Custom
Codec ID : XVID
Codec ID/Hint : XviD
Duration : 1h 44mn
Bit rate : 1 780 Kbps
Width : 624 pixels
Height : 384 pixels
Display aspect ratio : 1.625
Frame rate : 25.000 fps
Color space : YUV
Chroma subsampling : 4:2:0
Bit depth : 8 bits
Scan type : Progressive
Compression mode : Lossy
Bits/(Pixel*Frame) : 0.297
Stream size : 1.30 GiB (90%)
Writing library : XviD 64

Audio
ID : 1
Format : MPEG Audio
Format version : Version 1
Format profile : Layer 3
Codec ID : 55
Codec ID/Hint : MP3
Duration : 1h 44mn
Bit rate mode : Constant
Bit rate : 192 Kbps
Channel(s) : 2 channels
Sampling rate : 48.0 KHz
Compression mode : Lossy
Stream size : 144 MiB (10%)
Alignment : Aligned on interleaves
Interleave, duration : 40 ms (1.00 video frame)
Interleave, preload duration : 504 ms
Writing library : L3.99r
Encoding settings : -m s -V 4 -q 2 -lowpass 18.6 -b 192
Скриншоты

Релиз от:
 

Вложения

  • 15,5 KB Просмотры: 1
    Личеров 0
    Сидеров 0
    Файлов 1
    Объем 1,4 GB

Привет!

Мы группа людей которые решили помочь другим в решении их проблем, а так же пользователям с поиском самых свежих и качественных инфопродуктов. За 4 с небольшим месяца мы создали этот форум на который заходят ежедневно тысячи человек и посещаемость постоянно растёт. Мы создали панель лицензирования для защиты PHP скриптов от воровства и SEO панель для мониторинга наших сайтов и выбора верной стратегии их развития. Мы надеемся что то что мы создали пригодится Вам и возможно Вы поможете нам развиваться и совершенствоваться вместе с Вами.

Статистика форума

Темы
406.531
Сообщения
464.604
Пользователи
83.080
Новый пользователь
Хельга324234

Приложения форума для iOS и Android


У ркн там нет власти ;)
Приватные разговоры
Помощь Пользователи
    Вы не присоединились ни к одной комнате.