За последнюю неделю опубликовано 66 новых материалов.
Инструкция новичку Путеводитель по форуму Прокси для Telegram Показать подсказки , это бомба!

Скачать Семейное счастье (2013) HDTV 1080i от MediaClub бесплатно через торрент

  • Поучаствуй (в качестве покупателя) в любых пяти совместных покупках (кроме завершённых и "Моментальных") и получи группу "Новичок" навсегда -> ссылка на раздел
  • Получай до 480 рублей за каждого приглашенного пользователя!
    представляем Вам очередное расширение партнерской программы, подробности описаны тут -> ссылка
  • 90% материалов доступно к скачиванию после простой регистрации!
    Если же ты хочешь скачивать материалы без требования оставлять отзывы то получи группу "Новичок", 10 способов повышения описаны тут -> ссылка
  • К сожалению количество битых ссылок растет и мы уже не можем их оперативно восстанавливать поэтому просим помощи у каждого нашего пользователя.
    С сегодняшнего дня, за каждую восстановленную ссылку мы заплатим Вам.
    Подробнее тут -> ссылка
  • Перенесем твои заслуги с другого ресурса!
    Мы понимаем как сложно прокачивать аккаунты на форумах, вроде раскачал аккаунт, а тут появляется ресурс в 100 раз круче но тоже с системой прокачки и снова качать аккаунт...
    Предлагаем вам перенести Ваши заслуги на другом подобном ресурсе к нам.
    Подробности описаны тут -> ссылка
  • Вы можете получать по 2.5% с каждой покупки и продажи на маркете! Подробности в теме Партнёрская программа
Если Вы не хотите скачивать, Вы всегда можетепосмотретьонлайн, просто нажмите кнопку ниже :

Открыть плеер

Torrent_Bot

Торрент-Бот
Бот форума
4 Окт 2016
92
163
20
Информация о фильме
Оригинальное название: Семейное счастье (Аромат)
Год выхода: 2013
Жанр: Мелодрама
Режиссер: Виктория Держицкая
В ролях: Глафира Тарханова, Анастасия Веденская, Антон Батырев, Анатолий Горячев, Ирина Иваней, Владимир Капустин, Артём Алексеев (II), Нина Красильникова, Галина Анисимова (II), Нина Антюхова, Ива Солоницына, Аня Зайцева (III), Сергей Походаев, Катя Воробьёва, Ольга Голованова, Эльвира Ибрагимова, Светлана Костюкова

О фильме:
Варя, учительница литературы, уступив просьбе соседки подменить ее на рынке в палатке с одеждой и колготками, узнает в случайной покупательнице Галю, свою одноклассницу и когда-то лучшую подругу. Но, похоже, радость от встречи испытывает только она: Галя снисходительно оглядывает соученицу, сравнивая свой холеный вид с простотой облика Вари. При прощании Галя хочет было выбросить бумажку с телефоном Вари, но под взглядом подруги не решается сделать это. В общий их день рождения оказывается, что Галя при всем своем материальном благополучии (она – хозяйка салона красоты) остается в одиночестве: у любовника-покровителя заболела дочь, а других гостей она и не звала. Вспомнив о приглашении Вари, Галя, найдя в сумочке Варину записку с телефоном, напрашивается к той в гости. И попадает в теплый семейный дом, где есть место и гостям, и родственникам. Где не ругают детей за случайную шалость, где царствует любовь и взаимопонимание. Да еще оказывается, что муж Вари – чуть ли не писаный красавец Егор. Узнав, что Егор после сокращения ищет постоянную работу, Галя нанимает его личным шофером. И, используя представившуюся возможность, пытается его соблазнить. Но Егор игнорирует ее усилия. Галя в обиде нанимает бандитов, которые грабят и избивают Егора.… Не сразу Галя осознаёт, что натворила. Не сразу и Варя находит в себе силы простить одноклассницу. Но не умеет она отвечать злом на зло, не приемлет этого ее добрая душа. И в день 10-летней, розовой, свадьбы Варя и Егор зовут с собой в путешествие на лодке под парусами, оказавшуюся рядом несчастную Галю...

Страна: Россия
Студия: Кинокомпания Русское
Продолжительность: 01:30:26
Перевод: Не требуется

Файл
Кодек: MPEG-4 AVC
Качество: HDTV 1080i
Видео: 1920х1080 (16:9), 25 fps, AVC MPEG-4 (x264), [email protected] 8237 kbps avg, 0.147 bit/pixel
Звук: 48 kHz, MP2, 2 ch, 192 kbps avg

Семпл

Скрытый текст
Общее
Идентификатор : 1 (0x1)
Полное имя : F:Фильмы торрентыSemeynoe.schaste.2013.HDTV.(1080i).MediaClub.ts
Формат : MPEG-TS
Размер файла : 5,20 Гбайт
Продолжительность : 1 ч. 30 м.
Режим общего битрейта : Переменный
Общий поток : 8237 Кбит/сек

Видео
Идентификатор : 306 (0x132)
Идентификатор меню : 20106 (0x4E8A)
Формат : AVC
Формат/Информация : Advanced Video Codec
Профиль формата : [email protected]
Параметр CABAC формата : Да
Параметр ReFrames формата : 4 кадра
Параметр GOP формата : M=4, N=28
Идентификатор кодека : 27
Продолжительность : 1 ч. 30 м.
Битрейт : 7636 Кбит/сек
Ширина : 1920 пикселей
Высота : 1080 пикселей
Соотношение сторон : 16:9
Частота кадров : 25,000 кадров/сек
Стандарт вещания : Component
Цветовое пространство : YUV
Субдискретизация насыщенности : 4:2:0
Битовая глубина : 8 бит
Тип развёртки : Чересстрочная
Порядок развёртки : Верхнее поле первое
Бит/(Пиксели*Кадры) : 0.147
Размер потока : 4,82 Гбайт (93%)
Основные цвета : BT.709
Характеристики трансфера : BT.709
Коэффициенты матрицы : BT.709

Аудио
Идентификатор : 406 (0x196)
Идентификатор меню : 20106 (0x4E8A)
Формат : MPEG Audio
Версия формата : Version 1
Профиль формата : Layer 2
Идентификатор кодека : 3
Продолжительность : 1 ч. 30 м.
Вид битрейта : Постоянный
Битрейт : 192 Кбит/сек
Каналы : 2 канала
Частота : 48,0 КГц
Метод сжатия : С потерями
Задержка видео : -40 мс.
Размер потока : 124 Мбайт (2%)
Язык : English

Скриншоты



Релиз от:
 

Вложения

  • 27 KB Просмотры: 0
    Личеров 0
    Сидеров 0
    Файлов 1
    Объем 5,2 GB

Привет!

Мы группа людей которые решили помочь другим в решении их проблем, а так же пользователям с поиском самых свежих и качественных инфопродуктов. За 4 с небольшим месяца мы создали этот форум на который заходят ежедневно тысячи человек и посещаемость постоянно растёт. Мы создали панель лицензирования для защиты PHP скриптов от воровства и SEO панель для мониторинга наших сайтов и выбора верной стратегии их развития. Мы надеемся что то что мы создали пригодится Вам и возможно Вы поможете нам развиваться и совершенствоваться вместе с Вами.

Статистика форума

Темы
406.677
Сообщения
465.122
Пользователи
84.734
Новый пользователь
andrey564

Приложения форума для iOS и Android


У ркн там нет власти ;)
Приватные разговоры
Помощь Пользователи
    Вы не присоединились ни к одной комнате.