За последнюю неделю опубликовано 15 новых материалов.
Инструкция новичку Путеводитель по форуму Прокси для Telegram Показать подсказки , это бомба!

Скачать Семейка Аддамс / The Addams Family (1991) HDRip-AVC | P бесплатно через торрент

  • Поучаствуй (в качестве покупателя) в любых пяти совместных покупках (кроме завершённых и "Моментальных") и получи группу "Новичок" навсегда -> ссылка на раздел
  • Получай до 480 рублей за каждого приглашенного пользователя!
    представляем Вам очередное расширение партнерской программы, подробности описаны тут -> ссылка
  • 90% материалов доступно к скачиванию после простой регистрации!
    Если же ты хочешь скачивать материалы без требования оставлять отзывы то получи группу "Новичок", 10 способов повышения описаны тут -> ссылка
  • К сожалению количество битых ссылок растет и мы уже не можем их оперативно восстанавливать поэтому просим помощи у каждого нашего пользователя.
    С сегодняшнего дня, за каждую восстановленную ссылку мы заплатим Вам.
    Подробнее тут -> ссылка
  • Перенесем твои заслуги с другого ресурса!
    Мы понимаем как сложно прокачивать аккаунты на форумах, вроде раскачал аккаунт, а тут появляется ресурс в 100 раз круче но тоже с системой прокачки и снова качать аккаунт...
    Предлагаем вам перенести Ваши заслуги на другом подобном ресурсе к нам.
    Подробности описаны тут -> ссылка
  • Вы можете получать по 2.5% с каждой покупки и продажи на маркете! Подробности в теме Партнёрская программа
Если Вы не хотите скачивать, Вы всегда можетепосмотретьонлайн, просто нажмите кнопку ниже :

Открыть плеер

Torrent_Bot

Торрент-Бот
Бот форума
4 Окт 2016
122
125
20



Информация о фильме
Название: Семейка Аддамс
Оригинальное название: The Addams Family
Год выхода: 1991
Жанр: Фэнтези, комедия, семейный
Режиссер: Барри Зонненфельд
В ролях: Анжелика Хьюстон, Рауль Хулиа, Кристофер Ллойд, Дэн Хедайя, Элизабет Уилсон, Джудит Мэлина, Карел Стрёйкен, Дэна Айви, Пол Бенедикт, Кристина Риччи

Описание:
Черная комедия о колоритной семейке, обитающей в не менее колоритном доме. Глава семьи, Гомес Аддамс - очень самоуверенный и довольно импульсивный тип, который четверть века тому назад страшно поругался со своим старшим братом Фестером, после чего тот пропал без вести. Все попытки отыскать его были безуспешными. Но вот, однажды на пороге фамильного особняка появляется некто, очень похожий на Фестера. Но состоится ли триумфальное возвращение в семью «блудного брата»?



Страна: США
Студия: Paramount Pictures, Orion Pictures
Продолжительность: 01:39:37
Перевод: Профессиональный (многоголосый закадровый) - СТС
Субтитры: Русские, английские

Файл
Формат: Matroska
Качество: HDRip-AVC
Видео: 756x404 at 23.976 fps, x264, ~982 kbps, 0.134 bpp
Аудио: AAC, 2 ch, ~64 kbps - | Русский | -
Формат субтитров: softsub (SRT)

***Релиз от:-=DoMiNo=-

Ценности семейки Аддамс / Addams Family Values (1993) WEB-DLRip-AVC | P_745.79 MB

M/I
x264 [info]: frame I:1552 Avg QP:17.96 size: 32321
x264 [info]: frame P:33935 Avg QP:19.73 size: 11053
x264 [info]: frame B:107817 Avg QP:22.25 size: 2863
x264 [info]: consecutive B-frames: 3.1% 3.9% 9.9% 25.5% 20.1% 31.3% 3.6% 1.5% 0.6% 0.2% 0.3%

General
Format : Matroska
Format version : Version 4
File size : 746 MiB
Duration : 1 h 39 min
Overall bit rate : 1 047 kb/s
Movie name : Семейка Аддамс.(1991).HDRip-AVC.[-=DoMiNo=-]
Encoded date : UTC 2020-01-15 07:35:39
Writing application : mkvmerge v42.0.0 ('Overtime') 64-bit
Writing library : libebml v1.3.10 + libmatroska v1.5.2
Attachments : poster.jpg / poster 2.jpg

Video
ID : 1
Format : AVC
Format/Info : Advanced Video Codec
Format profile : [email protected]
Format settings : CABAC / 10 Ref Frames
Format settings, CABAC : Yes
Format settings, Reference : 10 frames
Codec ID : V_MPEG4/ISO/AVC
Duration : 1 h 39 min
Bit rate : 982 kb/s
Width : 756 pixels
Height : 404 pixels
Display aspect ratio : 1.85:1
Frame rate mode : Constant
Frame rate : 23.976 (24000/1001) FPS
Color space : YUV
Chroma subsampling : 4:2:0
Bit depth : 8 bits
Scan type : Progressive
Bits/(Pixel*Frame) : 0.134
Stream size : 700 MiB (94%)
Title : RIP_BY_-=DoMiNo=-
Writing library : x264 core 159 r2991 1771b55
Encoding settings : cabac=1 / ref=10 / deblock=1:-3:-3 / analyse=0x3:0x133 / me=umh / subme=11 / psy=1 / psy_rd=1.00:0.00 / mixed_ref=1 / me_range=48 / chroma_me=1 / trellis=2 / 8x8dct=1 / cqm=0 / deadzone=21,11 / fast_pskip=0 / chroma_qp_offset=-2 / threads=6 / lookahead_threads=1 / sliced_threads=0 / nr=0 / decimate=0 / interlaced=0 / bluray_compat=0 / constrained_intra=0 / bframes=10 / b_pyramid=2 / b_adapt=2 / b_bias=0 / direct=3 / weightb=1 / open_gop=0 / weightp=2 / keyint=250 / keyint_min=23 / scenecut=40 / intra_refresh=0 / rc=2pass / mbtree=0 / bitrate=982 / ratetol=1.0 / qcomp=0.65 / qpmin=0 / qpmax=69 / qpstep=4 / cplxblur=20.0 / qblur=0.5 / ip_ratio=1.40 / pb_ratio=1.30 / aq=2:0.80
Language : English
Default : Yes
Forced : No

Audio
ID : 2
Format : AAC LC SBR
Format/Info : Advanced Audio Codec Low Complexity with Spectral Band Replication
Commercial name : HE-AAC
Format settings : Explicit
Codec ID : A_AAC-2
Duration : 1 h 39 min
Bit rate : 62.7 kb/s
Channel(s) : 2 channels
Channel layout : L R
Sampling rate : 48.0 kHz
Frame rate : 23.438 FPS (2048 SPF)
Compression mode : Lossy
Stream size : 44.7 MiB (6%)
Title : MVO_[CTC]
Language : Russian
Default : Yes
Forced : No

Text #1
ID : 3
Format : UTF-8
Codec ID : S_TEXT/UTF8
Codec ID/Info : UTF-8 Plain Text
Duration : 1 h 34 min
Bit rate : 80 b/s
Count of elements : 1381
Stream size : 55.5 KiB (0%)
Language : Russian
Default : No
Forced : No

Text #2
ID : 4
Format : UTF-8
Codec ID : S_TEXT/UTF8
Codec ID/Info : UTF-8 Plain Text
Duration : 1 h 30 min
Bit rate : 47 b/s
Count of elements : 1066
Stream size : 31.5 KiB (0%)
Language : English
Default : No
Forced : No

Menu
00:00:00.000 : :Chapter 01
00:04:56.713 : :Chapter 02
00:09:01.624 : :Chapter 03
00:14:23.779 : :Chapter 04
00:21:07.516 : :Chapter 05
00:23:39.584 : :Chapter 06
00:29:35.482 : :Chapter 07
00:37:41.384 : :Chapter 08
00:46:16.899 : :Chapter 09
00:53:51.311 : :Chapter 10
01:00:33.421 : :Chapter 11
01:06:57.805 : :Chapter 12
01:17:07.956 : :Chapter 13
01:17:57.339 : :Chapter 14
01:23:38.680 : :Chapter 15
01:26:26.222 : :Chapter 16
01:31:21.559 : :Chapter 17
01:35:17.920 : :Chapter 18
01:39:55.656 : :Chapter 19
Скриншоты
 

Вложения

  • 15,6 KB Просмотры: 0
    Личеров 0
    Сидеров 0
    Файлов 1
    Объем 745,9 MB

Привет!

Мы группа людей которые решили помочь другим в решении их проблем, а так же пользователям с поиском самых свежих и качественных инфопродуктов. За 4 с небольшим месяца мы создали этот форум на который заходят ежедневно тысячи человек и посещаемость постоянно растёт. Мы создали панель лицензирования для защиты PHP скриптов от воровства и SEO панель для мониторинга наших сайтов и выбора верной стратегии их развития. Мы надеемся что то что мы создали пригодится Вам и возможно Вы поможете нам развиваться и совершенствоваться вместе с Вами.

Статистика форума

Темы
385.344
Сообщения
431.947
Пользователи
66.147
Новый пользователь
khabiburunbaev1993

Приложения форума для iOS и Android


У ркн там нет власти ;)
Приватные разговоры
Помощь Пользователи
    Вы не присоединились ни к одной комнате.