За последнюю неделю опубликовано 26 новых материалов.
Инструкция новичку Путеводитель по форуму Прокси для Telegram Показать подсказки , это бомба!

Скачать Семь пар нечистых (2018) WEBRip от GeneralFilm бесплатно через торрент

  • Поучаствуй (в качестве покупателя) в любых пяти совместных покупках (кроме завершённых и "Моментальных") и получи группу "Новичок" навсегда -> ссылка на раздел
  • Получай до 480 рублей за каждого приглашенного пользователя!
    представляем Вам очередное расширение партнерской программы, подробности описаны тут -> ссылка
  • 90% материалов доступно к скачиванию после простой регистрации!
    Если же ты хочешь скачивать материалы без требования оставлять отзывы то получи группу "Новичок", 10 способов повышения описаны тут -> ссылка
  • К сожалению количество битых ссылок растет и мы уже не можем их оперативно восстанавливать поэтому просим помощи у каждого нашего пользователя.
    С сегодняшнего дня, за каждую восстановленную ссылку мы заплатим Вам.
    Подробнее тут -> ссылка
  • Перенесем твои заслуги с другого ресурса!
    Мы понимаем как сложно прокачивать аккаунты на форумах, вроде раскачал аккаунт, а тут появляется ресурс в 100 раз круче но тоже с системой прокачки и снова качать аккаунт...
    Предлагаем вам перенести Ваши заслуги на другом подобном ресурсе к нам.
    Подробности описаны тут -> ссылка
  • Вы можете получать по 2.5% с каждой покупки и продажи на маркете! Подробности в теме Партнёрская программа
Если Вы не хотите скачивать, Вы всегда можетепосмотретьонлайн, просто нажмите кнопку ниже :

Открыть плеер

Torrent_Bot

Торрент-Бот
Бот форума
4 Окт 2016
122
116
20



Информация о фильме
Оригинальное название: Семь пар нечистых
Год выпуска: 2018
Жанр: Военный, драма, криминал
Выпущено: Россия, «АРК фильм» при поддержке «Фонд кино»
Режиссер: Кирилл Астахов, Юрий Ильин
В ролях: Юрий Борисов (II), Мари Ворожи, Василий Мищенко, Тимофей Трибунцев, Михаил Евланов, Александр Вершинин, Евгений Куршинский, Микаэл Джанибекян, Бесо Гатаев, Кирилл Белевич-Оболенский, Александр Алёшкин, Максим Браматкин, Станислав Курач, Артём Мельничук, Александр Коротков (II), Александр Ковалёв (II), Вадим Утенков, Константин Спиркин, Егор Клеймёнов, Азамат Нигманов, Кирилл Белевич, Руслан Ягудин, Алексей Кашников, Александр Воробьёв

О фильме: По мотивам одноименной повести Вениамина Каверина. 1941 г. Бунт на корабле — это всегда страшно. Особенно, если это бунт заключенных против охраны: из людей выплескивается ненависть, от которой некуда деться в открытом море. Этот бунт может привести к смерти не только охраны судна, но и матросов, и лейтенанта Сбоева, плывущего с секретным грузом, и случайной пассажирки — военврача Нины. Зачинщик бунта заключенный Аламасов продумал все детали, но не учел одного: корабль под названием «Онега» вышел в море 21 июня 1941 года, и когда мятеж почти увенчался успехом, судно начинают бомбить немецкие истребители.



Качество: WEBRip
Видео: XviD build 73, 720x304 (2.37:1), 25.000 fps, 1783 Kbps (0.326 bit/pixel)
Аудио: 48.0 kHz, AC3, 2/0 ch, 192 kbps
Продолжительность: 01:18:26
Перевод: Не требуется [Русский]
Cубтитры: нет

Скриншоты
MediaInfo
General
Complete name : D:RazdachiSemj.Par.Nechistyh.WEBRip.Generalfilm.avi
Format : AVI
Format/Info : Audio Video Interleave
File size : 1.09 GiB
Duration : 1 h 18 min
Overall bit rate : 1 985 kb/s
Writing application : VirtualDubMod 1.5.10.3 | www.virtualdub-fr.org || (build 2550/release)
Writing library : VirtualDubMod build 2550/release

Video
ID : 0
Format : MPEG-4 Visual
Format profile : Advanced Simple@L5
Format settings : BVOP1 / Custom Matrix
Format settings, BVOP : 1
Format settings, QPel : No
Format settings, GMC : No warppoints
Format settings, Matrix : Custom
Codec ID : XVID
Codec ID/Hint : XviD
Duration : 1 h 18 min
Bit rate : 1 783 kb/s
Width : 720 pixels
Height : 304 pixels
Display aspect ratio : 2.35:1
Frame rate : 25.000 FPS
Color space : YUV
Chroma subsampling : 4:2:0
Bit depth : 8 bits
Scan type : Progressive
Compression mode : Lossy
Bits/(Pixel*Frame) : 0.326
Stream size : 1 000 MiB (90%)
Writing library : XviD 73

Audio
ID : 1
Format : AC-3
Format/Info : Audio Coding 3
Commercial name : Dolby Digital
Codec ID : 2000
Duration : 1 h 18 min
Bit rate mode : Constant
Bit rate : 192 kb/s
Channel(s) : 2 channels
Channel layout : L R
Sampling rate : 48.0 kHz
Frame rate : 31.250 FPS (1536 SPF)
Bit depth : 16 bits
Compression mode : Lossy
Stream size : 108 MiB (10%)
Alignment : Split accross interleaves
Interleave, duration : 40 ms (1.00 video frame)
Interleave, preload duratio : 500 ms
Service kind : Complete Main
Релиз от:
 

Вложения

  • 11,8 KB Просмотры: 1
    Личеров 0
    Сидеров 0
    Файлов 1
    Объем 1,1 GB

Привет!

Мы группа людей которые решили помочь другим в решении их проблем, а так же пользователям с поиском самых свежих и качественных инфопродуктов. За 4 с небольшим месяца мы создали этот форум на который заходят ежедневно тысячи человек и посещаемость постоянно растёт. Мы создали панель лицензирования для защиты PHP скриптов от воровства и SEO панель для мониторинга наших сайтов и выбора верной стратегии их развития. Мы надеемся что то что мы создали пригодится Вам и возможно Вы поможете нам развиваться и совершенствоваться вместе с Вами.

Статистика форума

Темы
385.054
Сообщения
430.337
Пользователи
62.931
Новый пользователь
IvanSil

Приложения форума для iOS и Android


У ркн там нет власти ;)
Приватные разговоры
Помощь Пользователи
    Вы не присоединились ни к одной комнате.