За последнюю неделю опубликовано 30 новых материалов.
Инструкция новичку Путеводитель по форуму Прокси для Telegram Показать подсказки , это бомба!

Скачать Счастливое число 5 / 5 è il numero perfetto (2019) BDRip-AVC | iTunes бесплатно через торрент

  • Поучаствуй (в качестве покупателя) в любых пяти совместных покупках (кроме завершённых и "Моментальных") и получи группу "Новичок" навсегда -> ссылка на раздел
  • Получай до 480 рублей за каждого приглашенного пользователя!
    представляем Вам очередное расширение партнерской программы, подробности описаны тут -> ссылка
  • 90% материалов доступно к скачиванию после простой регистрации!
    Если же ты хочешь скачивать материалы без требования оставлять отзывы то получи группу "Новичок", 10 способов повышения описаны тут -> ссылка
  • К сожалению количество битых ссылок растет и мы уже не можем их оперативно восстанавливать поэтому просим помощи у каждого нашего пользователя.
    С сегодняшнего дня, за каждую восстановленную ссылку мы заплатим Вам.
    Подробнее тут -> ссылка
  • Перенесем твои заслуги с другого ресурса!
    Мы понимаем как сложно прокачивать аккаунты на форумах, вроде раскачал аккаунт, а тут появляется ресурс в 100 раз круче но тоже с системой прокачки и снова качать аккаунт...
    Предлагаем вам перенести Ваши заслуги на другом подобном ресурсе к нам.
    Подробности описаны тут -> ссылка
  • Вы можете получать по 2.5% с каждой покупки и продажи на маркете! Подробности в теме Партнёрская программа
Если Вы не хотите скачивать, Вы всегда можетепосмотретьонлайн, просто нажмите кнопку ниже :

Открыть плеер

Torrent_Bot

Торрент-Бот
Бот форума
4 Окт 2016
93
160
20



Информация о фильме
Название: Счастливое число 5
Оригинальное название: 5 è il numero perfetto
Год выхода: 2019
Жанр: Драма, триллер, криминал, боевик
Режиссер: Игорь Тувери
В ролях: Тони Сервилло, Валерия Голино, Карло Буччироссо, Яя Форте, Джованни Лудено, Лоренцо Ланселлотти, Винченцо Немолато, Мануэла Ламанна, Эмануеле Носерино, Анджело Курти

О фильме:
70-е годы. Неаполь, криминальная столица Италии. Наемный убийца по прозвищу Маленький Цицерон постарел и ушел на покой, оставив свой опасный бизнес красавцу-сыну. Но того вероломно убивают, и Маленький Цицерон вынужден вспомнить свое свирепое прошлое, чтобы безжалостно отомстить всем виновным. На помощь ему приходят бывший подельник Тото-мясник и верная боевая подруга Рита, которая не словом, а делом доказывает, что старая любовь не ржавеет, как и пули в хорошем пистолете…



Страна: Италия, Бельгия, Франция
Студия: Bruxelles Capitale, Cité Films, The Creative Europe Programme of the European Union, Fondazione Sardegna Film Commission, Jean Vigo Italia S.r.l., MACT Productions, Ministero per i Beni e le Attività Culturali, Nour Films, Potemkino, Propaganda Italia, Rai Cinema, Regione Campaniam, Regione Lazio, Screen Brussels
Продолжительность: 01:46:43
Перевод:
• Профессиональный (полное дублирование) | iTunes

Файл
Качество: BDRip-AVC
исходник: 5.e.il.numero.perfetto.2019.BDRemux.1080p.mkv
Формат: MKV
Кодек: MPEG-4 AVC
Видео: 1024x430 (2,40:1), 23,976 fps, MPEG-4 AVC ~ 2473 Kbps avg, 0.234 bit/pixel
Аудио: AC3, 48 kHz, 6 ch, ~384.00 kbps avg | русский | iTunes
Субтитры: Итальянские (Full), французские (SDH)


Инфо-файл
Общее
Уникальный идентификатор : 337539086180791958539210213430506569602 (0xFDEFA9D12720B0DFFF482697F5A83F82)
Полное имя : 5.e.Il.Numero.Perfetto.2019.BDRip.2.12Gb.x264.mkv
Формат : Matroska
Версия формата : Version 4
Размер файла : 2,12 Гбайт
Продолжительность : 1 ч. 46 м.
Общий поток : 2 851 Кбит/сек
Название фильма : Счастливое число 5 / 5 è il numero perfetto (2019)
Дата кодирования : UTC 2020-08-03 10:23:11
Программа кодирования : mkvmerge v47.0.0 ('Black Flag') 64-bit
Библиотека кодирования : libebml v1.3.10 + libmatroska v1.5.2
Обложка : Yes
Attachments : cover.jpg

Видео
Идентификатор : 1
Формат : AVC
Формат/Информация : Advanced Video Codec
Профиль формата : [email protected]
Настройки формата : CABAC / 9 Ref Frames
Параметр CABAC формата : Да
Параметр RefFrames формата : 9 кадров
Идентификатор кодека : V_MPEG4/ISO/AVC
Продолжительность : 1 ч. 46 м.
Битрейт : 2 473 Кбит/сек
Ширина : 1 024 пикселя
Высота : 430 пикселей
Соотношение сторон : 2,40:1
Режим частоты кадров : Постоянный
Частота кадров : 24,000 кадра/сек
Цветовое пространство : YUV
Субдискретизация насыщенности : 4:2:0
Битовая глубина : 8 бит
Тип развёртки : Прогрессивная
Бит/(Пиксели*Кадры) : 0.234
Размер потока : 1,84 Гбайт (86%)
Заголовок : #stillet
Библиотека кодирования : x264 core 152 r2851bm ba24899
Настройки программы : cabac=1 / ref=9 / deblock=1:-2:-2 / analyse=0x3:0x113 / me=umh / subme=11 / psy=1 / psy_rd=1.00:0.15 / mixed_ref=1 / me_range=32 / chroma_me=1 / trellis=2 / 8x8dct=1 / cqm=0 / deadzone=21,11 / fast_pskip=0 / chroma_qp_offset=-3 / threads=12 / lookahead_threads=3 / sliced_threads=0 / nr=0 / decimate=0 / interlaced=0 / bluray_compat=0 / constrained_intra=0 / bframes=10 / b_pyramid=2 / b_adapt=2 / b_bias=0 / direct=3 / weightb=1 / open_gop=0 / weightp=2 / keyint=240 / keyint_min=23 / scenecut=40 / intra_refresh=0 / rc=2pass / mbtree=0 / bitrate=2473 / ratetol=1.0 / qcomp=0.60 / qpmin=0 / qpmax=69 / qpstep=4 / cplxblur=20.0 / qblur=0.5 / ip_ratio=1.40 / pb_ratio=1.30 / aq=1:1.00
Язык : English
Default : Да
Forced : Нет

Аудио
Идентификатор : 2
Формат : AC-3
Формат/Информация : Audio Coding 3
Коммерческое название : Dolby Digital
Идентификатор кодека : A_AC3
Продолжительность : 1 ч. 46 м.
Вид битрейта : Постоянный
Битрейт : 384 Кбит/сек
Каналы : 6 каналов
Channel layout : L R C LFE Ls Rs
Частота : 48,0 КГц
Частота кадров : 31,250 кадров/сек (1536 SPF)
Метод сжатия : С потерями
Размер потока : 293 Мбайт (13%)
Заголовок : iTunes
Язык : Russian
Service kind : Complete Main
Default : Да
Forced : Да

Текст #1
Идентификатор : 3
Формат : UTF-8
Идентификатор кодека : S_TEXT/UTF8
Идентификатор кодека/Информация : UTF-8 Plain Text
Продолжительность : 1 ч. 34 м.
Битрейт : 42 бит/сек
Count of elements : 805
Размер потока : 29,7 Кбайт (0%)
Язык : Italian
Default : Нет
Forced : Нет

Текст #2
Идентификатор : 4
Формат : UTF-8
Идентификатор кодека : S_TEXT/UTF8
Идентификатор кодека/Информация : UTF-8 Plain Text
Продолжительность : 1 ч. 44 м.
Битрейт : 37 бит/сек
Count of elements : 822
Размер потока : 28,6 Кбайт (0%)
Заголовок : SDH
Язык : French
Default : Нет
Forced : Нет

Меню
00:00:00.000 : it:Глава 01
00:07:36.958 : it:Глава 02
00:15:55.667 : it:Глава 03
00:25:17.917 : it:Глава 04
00:37:27.917 : it:Глава 05
00:46:32.208 : it:Глава 06
00:57:28.958 : it:Глава 07
01:04:22.458 : it:Глава 08
01:09:46.958 : it:Глава 09
01:14:53.167 : it:Глава 10
01:28:07.250 : it:Глава 11
01:36:57.792 : it:Глава 12
Скриншоты
 

Вложения

  • 11,5 KB Просмотры: 0
    Личеров 0
    Сидеров 0
    Файлов 1
    Объем 2,1 GB

Привет!

Мы группа людей которые решили помочь другим в решении их проблем, а так же пользователям с поиском самых свежих и качественных инфопродуктов. За 4 с небольшим месяца мы создали этот форум на который заходят ежедневно тысячи человек и посещаемость постоянно растёт. Мы создали панель лицензирования для защиты PHP скриптов от воровства и SEO панель для мониторинга наших сайтов и выбора верной стратегии их развития. Мы надеемся что то что мы создали пригодится Вам и возможно Вы поможете нам развиваться и совершенствоваться вместе с Вами.

Статистика форума

Темы
406.605
Сообщения
465.025
Пользователи
84.383
Новый пользователь
wazice

Приложения форума для iOS и Android


У ркн там нет власти ;)
Приватные разговоры
Помощь Пользователи
    Вы не присоединились ни к одной комнате.