За последнюю неделю опубликовано 58 новых материалов.
Инструкция новичку Путеводитель по форуму Прокси для Telegram Показать подсказки , это бомба!

Скачать Счастливое число 5 / 5 è il numero perfetto (2019) BDRemux 1080p | iTunes бесплатно через торрент

  • Поучаствуй (в качестве покупателя) в любых пяти совместных покупках (кроме завершённых и "Моментальных") и получи группу "Новичок" навсегда -> ссылка на раздел
  • Получай до 480 рублей за каждого приглашенного пользователя!
    представляем Вам очередное расширение партнерской программы, подробности описаны тут -> ссылка
  • 90% материалов доступно к скачиванию после простой регистрации!
    Если же ты хочешь скачивать материалы без требования оставлять отзывы то получи группу "Новичок", 10 способов повышения описаны тут -> ссылка
  • К сожалению количество битых ссылок растет и мы уже не можем их оперативно восстанавливать поэтому просим помощи у каждого нашего пользователя.
    С сегодняшнего дня, за каждую восстановленную ссылку мы заплатим Вам.
    Подробнее тут -> ссылка
  • Перенесем твои заслуги с другого ресурса!
    Мы понимаем как сложно прокачивать аккаунты на форумах, вроде раскачал аккаунт, а тут появляется ресурс в 100 раз круче но тоже с системой прокачки и снова качать аккаунт...
    Предлагаем вам перенести Ваши заслуги на другом подобном ресурсе к нам.
    Подробности описаны тут -> ссылка
  • Вы можете получать по 2.5% с каждой покупки и продажи на маркете! Подробности в теме Партнёрская программа
Если Вы не хотите скачивать, Вы всегда можетепосмотретьонлайн, просто нажмите кнопку ниже :

Открыть плеер

Torrent_Bot

Торрент-Бот
Бот форума
4 Окт 2016
92
160
20

Информация о фильме
Название: Счастливое число 5
Оригинальное название: 5 è il numero perfetto
Год выхода: 2019
Жанр: Драма, триллер, криминал, боевик
Режиссер: Игорь Тувери
В ролях: Тони Сервилло, Валерия Голино, Карло Буччироссо, Яя Форте, Джованни Лудено, Лоренцо Ланселлотти, Винченцо Немолато, Мануэла Ламанна, Эмануеле Носерино, Анджело Курти

О фильме:
70-е годы, Неаполь, расцвет мафии. Пеппино Цицерон – наемный убийца каморры, который давно вышел на пенсию. Теперь он живет размеренной жизнью в милой квартирке и гуляет по улочкам города. Пеппино оставил свои дела на сына Нино – неаполитанского красавца, тоже выбравшего криминальный путь. Он стал одним из лучших молодых киллеров и достойно защищает честь отца.
Но старику не суждено провести спокойную старость: однажды Нино попадает в засаду и погибает. Пеппино решает отомстить убийцам и снова берет в руки оружие. На помощь ему приходят бывший напарник Тото Мясник и Рита – боевая подруга молодости, с которой героя связывали романтические отношения. Вместе они постараются наказать обидчиков и перевернуть весь мафиозный мир.



Страна: Италия, Бельгия, Франция
Студия: Propaganda Italia, Jean Vigo Italia, Rai Cinema
Продолжительность: 01:46:43
Перевод: Дублированный | iTunes
Субтитры: Отсутствуют

Файл
Кодек: MPEG-4 AVC
Качество: BDRemux 1080p
Видео: AVC/H.264, 1920x1080, ~28,6 Mbps
Аудио 1: AC3, 6 ch, 384 Kbps - Русский (DUB, iTunes)
Аудио 2: DTS-HD MA, 6 ch, 3923 Kbps - Французский

Возраст: 18+(зрителям, достигшим 18 лет.запрещено для детей)

M/I
Общее
Полное имя : 5.e.il.numero.perfetto.2019.BDRemux.1080p.mkv
Формат : Matroska
Версия формата : Version 4
Размер файла : 24,6 Гбайт
Продолжительность : 1 ч. 46 м.
Режим общего битрейта : Переменный
Общий поток : 32,9 Мбит/сек
Дата кодирования : UTC 2020-08-01 06:35:19
Программа кодирования : mkvmerge v45.0.0 ('Heaven in Pennies') 64-bit
Библиотека кодирования : libebml v1.3.10 + libmatroska v1.5.2

Видео
Идентификатор : 1
Формат : AVC
Формат/Информация : Advanced Video Codec
Профиль формата : [email protected]
Настройки формата : CABAC / 4 Ref Frames
Параметр CABAC формата : Да
Параметр RefFrames формата : 4 кадра
Идентификатор кодека : V_MPEG4/ISO/AVC
Продолжительность : 1 ч. 46 м.
Вид битрейта : Переменный
Битрейт : 28,6 Мбит/сек
Максимальный битрейт : 33,0 Мбит/сек
Ширина : 1 920 пикселей
Высота : 1 080 пикселей
Соотношение сторон : 16:9
Режим частоты кадров : Постоянный
Частота кадров : 24,000 кадра/сек
Цветовое пространство : YUV
Субдискретизация насыщенности : 4:2:0
Битовая глубина : 8 бит
Тип развёртки : Прогрессивная
Бит/(Пиксели*Кадры) : 0.575
Размер потока : 21,3 Гбайт (87%)
Default : Да
Forced : Нет

Аудио #1
Идентификатор : 2
Формат : AC-3
Формат/Информация : Audio Coding 3
Коммерческое название : Dolby Digital
Идентификатор кодека : A_AC3
Продолжительность : 1 ч. 46 м.
Вид битрейта : Постоянный
Битрейт : 384 Кбит/сек
Каналы : 6 каналов
Channel layout : L R C LFE Ls Rs
Частота : 48,0 КГц
Частота кадров : 31,250 кадров/сек (1536 SPF)
Метод сжатия : С потерями
Размер потока : 293 Мбайт (1%)
Язык : Russian
Service kind : Complete Main
Default : Да
Forced : Нет

Аудио #2
Идентификатор : 3
Формат : DTS XLL
Формат/Информация : Digital Theater Systems
Коммерческое название : DTS-HD Master Audio
Идентификатор кодека : A_DTS
Продолжительность : 1 ч. 46 м.
Вид битрейта : Переменный
Битрейт : 3 923 Кбит/сек
Каналы : 6 каналов
Channel layout : C L R Ls Rs LFE
Частота : 48,0 КГц
Частота кадров : 93,750 кадра/сек (512 SPF)
Битовая глубина : 24 бит
Метод сжатия : Без потерь
Размер потока : 2,92 Гбайт (12%)
Язык : French
Default : Нет
Forced : Нет
Скриншоты
 

Вложения

  • 246,4 KB Просмотры: 0
    Личеров 0
    Сидеров 0
    Файлов 1
    Объем 24,6 GB

Привет!

Мы группа людей которые решили помочь другим в решении их проблем, а так же пользователям с поиском самых свежих и качественных инфопродуктов. За 4 с небольшим месяца мы создали этот форум на который заходят ежедневно тысячи человек и посещаемость постоянно растёт. Мы создали панель лицензирования для защиты PHP скриптов от воровства и SEO панель для мониторинга наших сайтов и выбора верной стратегии их развития. Мы надеемся что то что мы создали пригодится Вам и возможно Вы поможете нам развиваться и совершенствоваться вместе с Вами.

Статистика форума

Темы
406.651
Сообщения
465.099
Пользователи
84.659
Новый пользователь
кнунун

Приложения форума для iOS и Android


У ркн там нет власти ;)
Приватные разговоры
Помощь Пользователи
    Вы не присоединились ни к одной комнате.