За последнюю неделю опубликовано 57 новых материалов.
Инструкция новичку Путеводитель по форуму Прокси для Telegram Показать подсказки , это бомба!

Скачать Счастье - это… Часть 2 (2019) WEB-DLRip 1080p бесплатно через торрент

  • Поучаствуй (в качестве покупателя) в любых пяти совместных покупках (кроме завершённых и "Моментальных") и получи группу "Новичок" навсегда -> ссылка на раздел
  • Получай до 480 рублей за каждого приглашенного пользователя!
    представляем Вам очередное расширение партнерской программы, подробности описаны тут -> ссылка
  • 90% материалов доступно к скачиванию после простой регистрации!
    Если же ты хочешь скачивать материалы без требования оставлять отзывы то получи группу "Новичок", 10 способов повышения описаны тут -> ссылка
  • К сожалению количество битых ссылок растет и мы уже не можем их оперативно восстанавливать поэтому просим помощи у каждого нашего пользователя.
    С сегодняшнего дня, за каждую восстановленную ссылку мы заплатим Вам.
    Подробнее тут -> ссылка
  • Перенесем твои заслуги с другого ресурса!
    Мы понимаем как сложно прокачивать аккаунты на форумах, вроде раскачал аккаунт, а тут появляется ресурс в 100 раз круче но тоже с системой прокачки и снова качать аккаунт...
    Предлагаем вам перенести Ваши заслуги на другом подобном ресурсе к нам.
    Подробности описаны тут -> ссылка
  • Вы можете получать по 2.5% с каждой покупки и продажи на маркете! Подробности в теме Партнёрская программа
Если Вы не хотите скачивать, Вы всегда можетепосмотретьонлайн, просто нажмите кнопку ниже :

Открыть плеер

Torrent_Bot

Торрент-Бот
Бот форума
4 Окт 2016
92
163
20



Информация о фильме
Название: Счастье – это… Часть 2
Год выхода: 2019
Жанр: мелодрама, семейный
Режиссер: Елена Войтович, Ангелина Дебор, Ирина Бас
В ролях: Кирилл Назаров, Валентина Мазунина, Станислав Дужников, Олег Чугунов, Ирина Алферова, Ксения Алферова, Людмила Чурсина, Аглая Тарасова, Елена Валюшкина, Никита Волков

О фильме:
Все мы такие разные, и у каждого из нас есть мечта, которая сделает нас счастливыми. Но для каждого человека счастье определяется по разному. Фильм представляет собой собрание из семи новелл: "Братья", "Родная", "Самый важный игрок", "Шансы в танцы", "Фантазер", "Фото на счастье", "Allegro Moderato". Каждый из героев стремится осуществить свое желание, и все из них вдруг осознают, что счастье находится совсем рядом...




Страна: Россия
Продолжительность: 01:43:18
Язык: Русский

Файл
Кодек: MPEG-4 AVC
Качество: WEB-DL 1080p
Видео: MPEG-4 AVC, 4544 Кбит/с, 1916x800
Звук: AC3, 6 ch, 384 Кбит/с
Субтитры: нет



МедиаИнфо
General
Unique ID : 70908065637167890848495002772158905562 (0x3558658D893ED41D0445844C0FDD7CDA)
Complete name : G:ФільмиСчастье.–.это…Часть.2.1080p.WEB-DL.Rus.mkv
Format : Matroska
Format version : Version 4
File size : 3.56 GiB
Duration : 1 h 43 min
Overall bit rate : 4 930 kb/s
Movie name : Счастье – это… Часть 2 (2019)
Encoded date : UTC 2020-07-31 13:07:38
Writing application : mkvmerge v45.0.0 ('Heaven in Pennies') 64-bit
Writing library : libebml v1.3.10 + libmatroska v1.5.2
Cover : Yes
Attachments : cover.jpg

Video
ID : 1
Format : AVC
Format/Info : Advanced Video Codec
Format profile : [email protected]
Format settings : CABAC / 5 Ref Frames
Format settings, CABAC : Yes
Format settings, Reference frames : 5 frames
Codec ID : V_MPEG4/ISO/AVC
Duration : 1 h 43 min
Bit rate : 4 544 kb/s
Width : 1 916 pixels
Height : 800 pixels
Display aspect ratio : 2.40:1
Frame rate mode : Constant
Frame rate : 25.000 FPS
Color space : YUV
Chroma subsampling : 4:2:0
Bit depth : 8 bits
Scan type : Progressive
Bits/(Pixel*Frame) : 0.119
Stream size : 3.28 GiB (92%)
Title : by WORTEXSON
Language : English
Default : Yes
Forced : No
Color range : Limited
Color primaries : BT.709
Transfer characteristics : BT.709
Matrix coefficients : BT.709

Audio
ID : 2
Format : AC-3
Format/Info : Audio Coding 3
Commercial name : Dolby Digital
Codec ID : A_AC3
Duration : 1 h 43 min
Bit rate mode : Constant
Bit rate : 384 kb/s
Channel(s) : 6 channels
Channel layout : L R C LFE Ls Rs
Sampling rate : 48.0 kHz
Frame rate : 31.250 FPS (1536 SPF)
Compression mode : Lossy
Stream size : 284 MiB (8%)
Language : Russian
Service kind : Complete Main
Default : Yes
Forced : No

Menu
00:00:00.000 : ru:Глава 1
00:10:07.607 : ru:Глава 2
00:18:49.128 : ru:Глава 3
00:29:30.769 : ru:Глава 4
00:40:21.419 : ru:Глава 5
00:49:27.965 : ru:Глава 6
01:02:48.765 : ru:Глава 7
01:09:44.180 : ru:Глава 8
01:24:33.068 : ru:Глава 9
01:37:27.842 : ru:Глава 10
Скриншоты
 

Вложения

  • 72,1 KB Просмотры: 0
    Личеров 0
    Сидеров 0
    Файлов 1
    Объем 3,6 GB

Привет!

Мы группа людей которые решили помочь другим в решении их проблем, а так же пользователям с поиском самых свежих и качественных инфопродуктов. За 4 с небольшим месяца мы создали этот форум на который заходят ежедневно тысячи человек и посещаемость постоянно растёт. Мы создали панель лицензирования для защиты PHP скриптов от воровства и SEO панель для мониторинга наших сайтов и выбора верной стратегии их развития. Мы надеемся что то что мы создали пригодится Вам и возможно Вы поможете нам развиваться и совершенствоваться вместе с Вами.

Статистика форума

Темы
406.698
Сообщения
465.162
Пользователи
84.793
Новый пользователь
vt7x2fyxlzwd

Приложения форума для iOS и Android


У ркн там нет власти ;)
Приватные разговоры
Помощь Пользователи
    Вы не присоединились ни к одной комнате.