За последнюю неделю опубликовано 91 новых материалов.
Инструкция новичку Путеводитель по форуму Прокси для Telegram Показать подсказки , это бомба!

Скачать Сбрось маму с поезда / Throw Momma From The Train (1987) BDRip 1080p | D, P, P2, A бесплатно через торрент

  • Поучаствуй (в качестве покупателя) в любых пяти совместных покупках (кроме завершённых и "Моментальных") и получи группу "Новичок" навсегда -> ссылка на раздел
  • Получай до 480 рублей за каждого приглашенного пользователя!
    представляем Вам очередное расширение партнерской программы, подробности описаны тут -> ссылка
  • 90% материалов доступно к скачиванию после простой регистрации!
    Если же ты хочешь скачивать материалы без требования оставлять отзывы то получи группу "Новичок", 10 способов повышения описаны тут -> ссылка
  • К сожалению количество битых ссылок растет и мы уже не можем их оперативно восстанавливать поэтому просим помощи у каждого нашего пользователя.
    С сегодняшнего дня, за каждую восстановленную ссылку мы заплатим Вам.
    Подробнее тут -> ссылка
  • Перенесем твои заслуги с другого ресурса!
    Мы понимаем как сложно прокачивать аккаунты на форумах, вроде раскачал аккаунт, а тут появляется ресурс в 100 раз круче но тоже с системой прокачки и снова качать аккаунт...
    Предлагаем вам перенести Ваши заслуги на другом подобном ресурсе к нам.
    Подробности описаны тут -> ссылка
  • Вы можете получать по 2.5% с каждой покупки и продажи на маркете! Подробности в теме Партнёрская программа
Если Вы не хотите скачивать, Вы всегда можетепосмотретьонлайн, просто нажмите кнопку ниже :

Открыть плеер

Torrent_Bot

Торрент-Бот
Бот форума
4 Окт 2016
102
152
20

Название: Сбрось маму с поезда
Оригинальное название: Throw Momma From The Train
Год выхода: 1987
Производство: США / Orion Pictures, Rollins, Morra & Brezner, Throw Momma
Жанр: Триллер, комедия, криминал
Перевод: Дублированный, профессиональный многоголосый, профессиональный двухголосый, авторский одноголосый
Продолжительность: 01:27:41

Режиссер: Дэнни ДеВито
В ролях: Дэнни ДеВито, Билли Кристал, Ким Грайст, Энн Рэмси, Кейт Малгрю, Branford Marsalis, Роб Райнер, Брюс Кирби, Джои ДеПинто, Энни Росс

Описание: Оказывается, даже у столь разных людей может быть что-то общее. Объединяющим мотивом является желание избавиться, причем самым действенным способом, от близкого человека. Один хочет убить свою бывшую жену, которая все еще умудряется превращать его жизнь в ад, второй видит сны о свободной радостной жизни, которым не суждено сбыться из-за буйной, деспотичной мамаши, продолжающей шпынять своего сына, не обращая внимания на его уже совсем не юный возраст. Им кажется, что в такой ситуации лучшим решением избежать наказания — это поменяться убийствами…

Формат: MKV
Качество: BDRip 1080p
Видео : MPEG-4/AVC, 1920x1040, ~9 900 kbps
Аудио 01: AC3, 2 ch, 192 kbps - Русский MVO (СТС)
Аудио 02: AC3, 2 ch, 192 kbps - Русский MVO (Позитив Мультимедия)
Аудио 03: AC3, 2 ch, 192 kbps - Русский дублированный (Хлопушка)
Аудио 04: AC3, 2 ch, 192 kbps - Русский DVO (НТВ+)
Аудио 05: AC3, 2 ch, 192 kbps - Русский DVO (Союз Видео)
Аудио 06: AC3, 2 ch, 192 kbps - Русский AVO (Алексей Михалёв)
Аудио 07: AC3, 2 ch, 192 kbps - Английский
Аудио 08: DTS, 2 ch, 1 536 kbps - Английский

Субтитры: Русские, английские




Mediainfo
General
Unique ID : 123944651874030401242088585387412228956 (0x5D3EDF2464F83CA1DA5098C068270B5C)
Complete name : D:Download / Сбрось маму с поезда (1987).mkv
Format : Matroska
Format version : Version 4
File size : 7.83 GiB
Duration : 1 h 27 min
Overall bit rate : 12.8 Mb/s
Movie name : Сбрось маму с поезда / Throw Momma From The Train (1987)
Encoded date : UTC 2020-05-20 16:00:35
Writing application : mkvmerge v45.0.0 ('Heaven in Pennies') 64-bit
Writing library : libebml v1.3.10 + libmatroska v1.5.2
Cover : Yes
Attachments : Cover.jpg

Video
ID : 1
Format : AVC
Format/Info : Advanced Video Codec
Format profile : High@L4.1
Format settings : CABAC / 4 Ref Frames
Format settings, CABAC : Yes
Format settings, Reference fra : 4 frames
Codec ID : V_MPEG4/ISO/AVC
Duration : 1 h 27 min
Bit rate : 9 900 kb/s
Width : 1 920 pixels
Height : 1 040 pixels
Display aspect ratio : 1.85:1
Frame rate mode : Constant
Frame rate : 23.976 (24000/1001) FPS
Color space : YUV
Chroma subsampling : 4:2:0
Bit depth : 8 bits
Scan type : Progressive
Bits/(Pixel*Frame) : 0.207
Stream size : 6.06 GiB (77%)
Title : Throw Momma From The Train
Writing library : x264 core 116 r2074 2641b9e
Encoding settings : cabac=1 / ref=4 / deblock=1:-2:-2 / analyse=0x3:0x113 / me=umh / subme=10 / psy=1 / psy_rd=1.20:0.20 / mixed_ref=1 / me_range=32 / chroma_me=1 / trellis=2 / 8x8dct=1 / cqm=0 / deadzone=21,11 / fast_pskip=0 / chroma_qp_offset=-3 / threads=9 / sliced_threads=0 / nr=0 / decimate=0 / interlaced=0 / bluray_compat=0 / constrained_intra=0 / bframes=5 / b_pyramid=2 / b_adapt=2 / b_bias=0 / direct=3 / weightb=1 / open_gop=0 / weightp=2 / keyint=250 / keyint_min=2 / scenecut=40 / intra_refresh=0 / rc_lookahead=72 / rc=2pass / mbtree=1 / bitrate=9900 / ratetol=1.0 / qcomp=0.60 / qpmin=10 / qpmax=51 / qpstep=4 / cplxblur=20.0 / qblur=0.5 / vbv_maxrate=38000 / vbv_bufsize=38000 / nal_hrd=none / ip_ratio=1.40 / aq=1:1.00
Language : English
Default : Yes
Forced : No

Audio #1
ID : 2
Format : AC-3
Format/Info : Audio Coding 3
Commercial name : Dolby Digital
Codec ID : A_AC3
Duration : 1 h 27 min
Bit rate mode : Constant
Bit rate : 192 kb/s
Channel(s) : 2 channels
Channel layout : L R
Sampling rate : 48.0 kHz
Frame rate : 31.250 FPS (1536 SPF)
Compression mode : Lossy
Stream size : 120 MiB (2%)
Title : MVO (СТС)
Language : Russian
Service kind : Complete Main
Default : Yes
Forced : No

Audio #2
ID : 3
Format : AC-3
Format/Info : Audio Coding 3
Commercial name : Dolby Digital
Codec ID : A_AC3
Duration : 1 h 27 min
Bit rate mode : Constant
Bit rate : 192 kb/s
Channel(s) : 2 channels
Channel layout : L R
Sampling rate : 48.0 kHz
Frame rate : 31.250 FPS (1536 SPF)
Compression mode : Lossy
Stream size : 120 MiB (2%)
Title : MVO (Позитив Мультимедия)
Language : Russian
Service kind : Complete Main
Default : No
Forced : No

Audio #3
ID : 4
Format : AC-3
Format/Info : Audio Coding 3
Commercial name : Dolby Digital
Codec ID : A_AC3
Duration : 1 h 27 min
Bit rate mode : Constant
Bit rate : 192 kb/s
Channel(s) : 2 channels
Channel layout : L R
Sampling rate : 48.0 kHz
Frame rate : 31.250 FPS (1536 SPF)
Compression mode : Lossy
Stream size : 120 MiB (2%)
Title : Дубляж (Хлопушка)
Language : Russian
Service kind : Complete Main
Default : No
Forced : No

Audio #4
ID : 5
Format : AC-3
Format/Info : Audio Coding 3
Commercial name : Dolby Digital
Codec ID : A_AC3
Duration : 1 h 27 min
Bit rate mode : Constant
Bit rate : 192 kb/s
Channel(s) : 2 channels
Channel layout : L R
Sampling rate : 48.0 kHz
Frame rate : 31.250 FPS (1536 SPF)
Compression mode : Lossy
Stream size : 120 MiB (2%)
Title : DVO (НТВ+)
Language : Russian
Service kind : Complete Main
Default : No
Forced : No

Audio #5
ID : 6
Format : AC-3
Format/Info : Audio Coding 3
Commercial name : Dolby Digital
Codec ID : A_AC3
Duration : 1 h 27 min
Bit rate mode : Constant
Bit rate : 192 kb/s
Channel(s) : 2 channels
Channel layout : L R
Sampling rate : 48.0 kHz
Frame rate : 31.250 FPS (1536 SPF)
Compression mode : Lossy
Stream size : 120 MiB (2%)
Title : DVO (Союз Видео)
Language : Russian
Service kind : Complete Main
Default : No
Forced : No

Audio #6
ID : 7
Format : AC-3
Format/Info : Audio Coding 3
Commercial name : Dolby Digital
Codec ID : A_AC3
Duration : 1 h 27 min
Bit rate mode : Constant
Bit rate : 192 kb/s
Channel(s) : 2 channels
Channel layout : L R
Sampling rate : 48.0 kHz
Frame rate : 31.250 FPS (1536 SPF)
Compression mode : Lossy
Stream size : 120 MiB (2%)
Title : AVO (Алексей Михалёв)
Language : Russian
Service kind : Complete Main
Default : No
Forced : No

Audio #7
ID : 8
Format : AC-3
Format/Info : Audio Coding 3
Commercial name : Dolby Digital
Codec ID : A_AC3
Duration : 1 h 27 min
Bit rate mode : Constant
Bit rate : 192 kb/s
Channel(s) : 2 channels
Channel layout : L R
Sampling rate : 48.0 kHz
Frame rate : 31.250 FPS (1536 SPF)
Compression mode : Lossy
Stream size : 120 MiB (2%)
Title : Original
Language : English
Service kind : Complete Main
Default : No
Forced : No

Audio #8
ID : 9
Format : DTS
Format/Info : Digital Theater Systems
Codec ID : A_DTS
Duration : 1 h 27 min
Bit rate mode : Constant
Bit rate : 1 536 kb/s
Channel(s) : 2 channels
Channel layout : L R
Sampling rate : 48.0 kHz
Frame rate : 93.750 FPS (512 SPF)
Bit depth : 16 bits
Compression mode : Lossy
Stream size : 963 MiB (12%)
Title : Original
Language : English
Default : No
Forced : No

Text #1
ID : 10
Format : UTF-8
Codec ID : S_TEXT/UTF8
Codec ID/Info : UTF-8 Plain Text
Duration : 1 h 26 min
Bit rate : 95 b/s
Count of elements : 1107
Stream size : 60.8 KiB (0%)
Title : Full
Language : Russian
Default : No
Forced : No

Text #2
ID : 11
Format : UTF-8
Codec ID : S_TEXT/UTF8
Codec ID/Info : UTF-8 Plain Text
Duration : 1 h 24 min
Bit rate : 68 b/s
Count of elements : 1114
Stream size : 42.4 KiB (0%)
Title : Full
Language : English
Default : No
Forced : No

Menu
00:00:00.000 : :00:00:00.000
00:06:08.159 : :00:06:08.159
00:08:17.956 : :00:08:17.956
00:13:10.456 : :00:13:10.456
00:16:26.485 : :00:16:26.485
00:19:48.854 : :00:19:48.854
00:29:05.160 : :00:29:05.160
00:35:31.212 : :00:35:31.212
00:41:46.963 : :00:41:46.963
00:49:01.897 : :00:49:01.897
00:55:31.286 : :00:55:31.286
01:00:28.625 : :01:00:28.625
01:04:33.745 : :01:04:33.745
01:10:33.312 : :01:10:33.312
01:16:21.076 : :01:16:21.076
01:23:08.734 : :01:23:08.734
Видеоряд от MySilu
RELEASE.NAME...: Throw.Momma.from.the.Train.1987.BluRay.1080p.x264.DTS.MySilu
RELEASE.TIME...: Sat Sep 17 15:13:11 2011
IMDB.RATE......: 6.1/10(13,444 votes)
FILM.GENRE.....: Crime | Comedy
RUN.TIME.......: 87 mins 42 seconds
SIZE...........: 6.99 GiB
CONTAINER......: mkv
VIDEO..........: AVC High@L4.1 CABAC=Yes RefFrames=4
FRAME.RATE.....: 23.976 fps
BIT.RATE.......: 9 900 Kbps
ENCODED.LIBRARY: x264 core 116 r2074 2641b9e
RESOLUTION.....: 1920 x 1040
ASPECT.RATIO...: 16/9
AUDIO..........: DTS 2.0 48.0 KHz 1 536 Kbps English
RIP.SOURCE.....: Blu-ray
Скриншоты


 

Вложения

  • 20,6 KB Просмотры: 0
    Личеров 0
    Сидеров 0
    Файлов 1
    Объем 7,8 GB

Привет!

Мы группа людей которые решили помочь другим в решении их проблем, а так же пользователям с поиском самых свежих и качественных инфопродуктов. За 4 с небольшим месяца мы создали этот форум на который заходят ежедневно тысячи человек и посещаемость постоянно растёт. Мы создали панель лицензирования для защиты PHP скриптов от воровства и SEO панель для мониторинга наших сайтов и выбора верной стратегии их развития. Мы надеемся что то что мы создали пригодится Вам и возможно Вы поможете нам развиваться и совершенствоваться вместе с Вами.

Статистика форума

Темы
404.595
Сообщения
461.475
Пользователи
80.290
Новый пользователь
khlkkk

Приложения форума для iOS и Android


У ркн там нет власти ;)
Приватные разговоры
Помощь Пользователи
    Вы не присоединились ни к одной комнате.