За последнюю неделю опубликовано 172 новых материалов.
Инструкция новичку Путеводитель по форуму Прокси для Telegram Показать подсказки , это бомба!

Скачать Самый лучший фильм 3-ДЭ (2011) BDRip от ivandubskoj | Лицензия бесплатно через торрент

  • Поучаствуй (в качестве покупателя) в любых пяти совместных покупках (кроме завершённых и "Моментальных") и получи группу "Новичок" навсегда -> ссылка на раздел
  • Получай до 480 рублей за каждого приглашенного пользователя!
    представляем Вам очередное расширение партнерской программы, подробности описаны тут -> ссылка
  • 90% материалов доступно к скачиванию после простой регистрации!
    Если же ты хочешь скачивать материалы без требования оставлять отзывы то получи группу "Новичок", 10 способов повышения описаны тут -> ссылка
  • К сожалению количество битых ссылок растет и мы уже не можем их оперативно восстанавливать поэтому просим помощи у каждого нашего пользователя.
    С сегодняшнего дня, за каждую восстановленную ссылку мы заплатим Вам.
    Подробнее тут -> ссылка
  • Перенесем твои заслуги с другого ресурса!
    Мы понимаем как сложно прокачивать аккаунты на форумах, вроде раскачал аккаунт, а тут появляется ресурс в 100 раз круче но тоже с системой прокачки и снова качать аккаунт...
    Предлагаем вам перенести Ваши заслуги на другом подобном ресурсе к нам.
    Подробности описаны тут -> ссылка
  • Вы можете получать по 2.5% с каждой покупки и продажи на маркете! Подробности в теме Партнёрская программа
Если Вы не хотите скачивать, Вы всегда можетепосмотретьонлайн, просто нажмите кнопку ниже :

Открыть плеер

Torrent_Bot

Торрент-Бот
Бот форума
4 Окт 2016
124
94
20
Информация о фильме
Название: Самый лучший фильм 3-ДЭ
Год выхода: 2011
Жанр: Комедия, приключения, пародия
Режиссёр: Кирилл Кузин
В ролях: Гарик Харламов, Пётр Винс, Екатерина Кузнецова, Александр Балуев, Михаил Ефремов, Александр Семчев, Валентин Смирнитский, Денис Яковлев, Константин Соловьёв, Денис Жариков, Дмитрий Зеничев

О фильме:
Макс Утёсов - недооцененный режиссер-любитель. Утесов снимает свои фильмы на любительскую камеру. В это же время российские киноакадемики проводят конкурс «Самый лучший фильм России», в финал которого вышли 7 известнейших кинокартин. До церемонии объявления победителя конкурса пленки с фильмами (все в единственном экземпляре) запираются в сейф. Но Виктор Палыч подкупает организатора премии Эдуарда Рыкова, чтобы получить картины для нелицензионного копирования. Перевезти фильмы от Рыкова к Виктору Палычу должен Макс Утесов и его друг Саня. Они проваливают задание: пленки сгорают, и друзей начинают разыскивать видеопираты. Единственный способ выжить: за несколько дней переснять знаменитые российские кинокартины. Но вот в чем парадокс: копии Утёсова вполне могут оказаться качественней оригиналов...

bf5ad530505d317bab09da158af31369.gifbfd1f537af64b2ddc50dcba939eccc27.gif

Страна: Россия
Студия: Comedy Club Production, Monument Pictures
Продолжительность: 01:41:37
Перевод: Не требуется

Файл
Кодек: XviD
Качество: BDRip [Исходник: Blu-ray RUS 1080p AVC DTS-HD 5.1]
Видео: XviD, 624x336 (1.857), 888 Кбит/с, 23,976 кадр/с
Звук: Русский, MP3, 48000 Гц, 128 Кбит/с, 2 канала (Стерео)
Субтитры: Нет

aa9e25ac343084f228c848409bb198df.png

MediaInfo
General
Complete name : Samyy.luchshiy.film.3DE.2011.BDRip.745MB.avi
Format : AVI
Format/Info : Audio Video Interleave
File size : 745 MiB
Duration : 1h 41mn
Overall bit rate : 1 025 Kbps
Writing application : VirtualDubMod 1.5.10.3 | www.virtualdub-fr.org || (build 2550/release)
Writing library : VirtualDubMod build 2550/release
Copyright : rip by ivandubskoj

Video
ID : 0
Format : MPEG-4 Visual
Format profile : Advanced Simple@L5
Format settings, BVOP : 2
Format settings, QPel : No
Format settings, GMC : No warppoints
Format settings, Matrix : Custom
Codec ID : XVID
Codec ID/Hint : XviD
Duration : 1h 41mn
Bit rate : 888 Kbps
Width : 624 pixels
Height : 336 pixels
Display aspect ratio : 1.857
Frame rate : 23.976 fps
Color space : YUV
Chroma subsampling : 4:2:0
Bit depth : 8 bits
Scan type : Progressive
Compression mode : Lossy
Bits/(Pixel*Frame) : 0.177
Stream size : 645 MiB (87%)
Writing library : XviD 73

Audio
ID : 1
Format : MPEG Audio
Format version : Version 1
Format profile : Layer 3
Codec ID : 55
Codec ID/Hint : MP3
Duration : 1h 41mn
Bit rate mode : Constant
Bit rate : 128 Kbps
Channel(s) : 2 channels
Sampling rate : 48.0 KHz
Compression mode : Lossy
Stream size : 93.0 MiB (12%)
Alignment : Aligned on interleaves
Interleave, duration : 42 ms (1.00 video frame)
Interleave, preload duration : 504 ms
Writing library : LAME3.99r
Encoding settings : -m s -V 4 -q 0 -lowpass 17 -b 128
Скриншоты
c9def232dd67ae1063fc8298a2339152.jpge036635f73b187ee4d44ce1fa5b27da8.jpg86f4ffb3fcd739563beb7ad76eb46ccd.jpg3cd254f5b046a80c6da28c17e7ca5f0b.jpg
Автор рипа - ivandubskoj
 

Вложения

  • 15,6 KB Просмотры: 0
    Личеров 0
    Сидеров 0
    Файлов 1
    Объем 745 MB
Ваш e-mail не будет опубликован. Он потребуется для подтверждения Вашего поста.
Оформление текста Нажмите «Ввод», чтобы отправить ответ.

Привет!

Мы группа людей которые решили помочь другим в решении их проблем, а так же пользователям с поиском самых свежих и качественных инфопродуктов. За 4 с небольшим месяца мы создали этот форум на который заходят ежедневно тысячи человек и посещаемость постоянно растёт. Мы создали панель лицензирования для защиты PHP скриптов от воровства и SEO панель для мониторинга наших сайтов и выбора верной стратегии их развития. Мы надеемся что то что мы создали пригодится Вам и возможно Вы поможете нам развиваться и совершенствоваться вместе с Вами.

Статистика форума

Темы
378.751
Сообщения
418.021
Пользователи
49.710
Новый пользователь
RajousKem

Приложения форума для iOS и Android


У ркн там нет власти ;)
Приватные разговоры
Помощь Пользователи
    Вы не присоединились ни к одной комнате.