За последнюю неделю опубликовано 177 новых материалов.
Инструкция новичку Путеводитель по форуму Прокси для Telegram Показать подсказки , это бомба!

Скачать Самый лучший фильм 2 (2009) DVDRip от ivandubskoj бесплатно через торрент

  • Поучаствуй (в качестве покупателя) в любых пяти совместных покупках (кроме завершённых и "Моментальных") и получи группу "Новичок" навсегда -> ссылка на раздел
  • Получай до 480 рублей за каждого приглашенного пользователя!
    представляем Вам очередное расширение партнерской программы, подробности описаны тут -> ссылка
  • 90% материалов доступно к скачиванию после простой регистрации!
    Если же ты хочешь скачивать материалы без требования оставлять отзывы то получи группу "Новичок", 10 способов повышения описаны тут -> ссылка
  • К сожалению количество битых ссылок растет и мы уже не можем их оперативно восстанавливать поэтому просим помощи у каждого нашего пользователя.
    С сегодняшнего дня, за каждую восстановленную ссылку мы заплатим Вам.
    Подробнее тут -> ссылка
  • Перенесем твои заслуги с другого ресурса!
    Мы понимаем как сложно прокачивать аккаунты на форумах, вроде раскачал аккаунт, а тут появляется ресурс в 100 раз круче но тоже с системой прокачки и снова качать аккаунт...
    Предлагаем вам перенести Ваши заслуги на другом подобном ресурсе к нам.
    Подробности описаны тут -> ссылка
  • Вы можете получать по 2.5% с каждой покупки и продажи на маркете! Подробности в теме Партнёрская программа
Если Вы не хотите скачивать, Вы всегда можетепосмотретьонлайн, просто нажмите кнопку ниже :

Открыть плеер

Torrent_Bot

Торрент-Бот
Бот форума
4 Окт 2016
124
98
20
Информация о фильме
Название: Самый лучший фильм 2
Год выхода: 2009
Жанр: Комедия, пародия, приключения, фантастика
Режиссер: Олег Фомин
В ролях: Тимур Батрутдинов, Гарик Харламов, Дмитрий Хрусталёв, Олег Верещагин, Михаил Галустян, Дмитрий Нагиев, Александр Баширов, Сергей Лазарев, Сергей Зверев, Екатерина Конисевич, Фёдор Бондарчук

О фильме:
Четверо закадычных друзей - Моряк, Актёр, Мажор и Димати - после долгой разлуки встречаются в московском кафе отметить день рождения Мажора. На сей раз у них есть наличные, чтобы расплатиться с официанткой. И бегать по городу в поисках денег они будут совершенно по другой причине. Мажора похитили и требуют выкуп - миллион евро. Чем друзья будут расплачиваться с бандитами, кто найдёт новую любовь, а вместе с ней и приключения на все органы жизнедеятельности, кому придётся испытать все тяготы сложного пути шоу-бизнеса к популярности, каково рэпперу кавказской наружности гулять одному по безлюдным улицам?! Но все это впереди, а пока они молоды, красивы, полны сил, надежд и ждут приключений!

a9c509711a420c481785c3dddfa6a602.gif6ea92f2603c530da0408b419d6873d23.gif

Страна: Comedy Club Production, ТНТ
Студия: Россия
Продолжительность: 01:21:36
Перевод: Не требуется

Файл
Кодек: XviD
Качество: DVDRip (Исходник: DVD-9)
Видео: XviD, 704x304 (2.35:1), 2176 Кбит/с, 25 кадр/с
Звук: Русский, Dolby АС3, 48000 Гц, 384 Кбит/с, 6 каналов (5.1)
Субтитры: Отсутствуют

9262eb5b20728555f9ccee1b30a6ac69.png

Автор рипа - ivandubskoj

MediaInfo
Общее
Полное имя : Samyy.luchshiy.fil'm.2.2009.DVDRip.avi
Формат : AVI
Формат/Информация : Audio Video Interleave
Размер файла : 1,46 Гбайт
Продолжительность : 1 ч. 21 м.
Общий поток : 2568 Кбит/сек
Название фильма : Самый лучший фильм (2009) DVDRip
Жанр : Комедия, пародия, приключения, фантастика
Дата записи : 12.02.2014
Программа кодирования : VirtualDubMod 1.5.10.3 (build 2550/release)
Библиотека кодирования : VirtualDubMod build 2550/release
Правообладатель : rip by ivandubskoj

Видео
Идентификатор : 0
Формат : MPEG-4 Visual
Профиль формата : Advanced Simple@L5
Параметр BVOP формата : 1
Параметр QPel формата : Нет
Параметр GMC формата : Без точки перехода
Параметр матрицы формата : Default (MPEG)
Идентификатор кодека : XVID
Идентификатор кодека/Подсказка : XviD
Продолжительность : 1 ч. 21 м.
Битрейт : 2176 Кбит/сек
Ширина : 704 пикселя
Высота : 304 пикселя
Соотношение сторон : 2,35:1
Частота кадров : 25,000 кадров/сек
Цветовое пространство : YUV
Субдискретизация насыщенности : 4:2:0
Битовая глубина : 8 бит
Тип развёртки : Прогрессивная
Метод сжатия : С потерями
Бит/(Пиксели*Кадры) : 0.407
Размер потока : 1,24 Гбайт (85%)
Библиотека кодирования : XviD 73

Аудио
Идентификатор : 1
Формат : AC-3
Формат/Информация : Audio Coding 3
Расширение режима : CM (complete main)
Параметр Endianness формата : Big
Идентификатор кодека : 2000
Продолжительность : 1 ч. 21 м.
Вид битрейта : Постоянный
Битрейт : 384 Кбит/сек
Каналы : 6 каналов
Расположение каналов : Front: L C R, Side: L R, LFE
Частота : 48,0 КГц
Битовая глубина : 16 бит
Метод сжатия : С потерями
Размер потока : 224 Мбайт (15%)
Выравнивание : Разделение по промежуткам
Продолжительность промежутка : 64 мс. (1,60 видеокадра)
Время предзагрузки промежутка : 500 мс.
Заголовок : Russian
Скриншот c названием фильма
3926cc98708dd027e04c64c4e8d8aefd.jpg
Скриншоты
8af147ba133f668a0276b854f7921238.jpg31183a95f28e5cacade485421044a549.jpg9d6e3765d25b394c75e3e3358c424351.jpg6c0a012a1d43513d8082a464a3e6de3f.jpg
 

Вложения

  • 15,7 KB Просмотры: 0
    Личеров 0
    Сидеров 0
    Файлов 1
    Объем 1,5 GB
Ваш e-mail не будет опубликован. Он потребуется для подтверждения Вашего поста.
Оформление текста Нажмите «Ввод», чтобы отправить ответ.

Привет!

Мы группа людей которые решили помочь другим в решении их проблем, а так же пользователям с поиском самых свежих и качественных инфопродуктов. За 4 с небольшим месяца мы создали этот форум на который заходят ежедневно тысячи человек и посещаемость постоянно растёт. Мы создали панель лицензирования для защиты PHP скриптов от воровства и SEO панель для мониторинга наших сайтов и выбора верной стратегии их развития. Мы надеемся что то что мы создали пригодится Вам и возможно Вы поможете нам развиваться и совершенствоваться вместе с Вами.

Статистика форума

Темы
380.750
Сообщения
420.473
Пользователи
50.963
Новый пользователь
Xopek

Приложения форума для iOS и Android


У ркн там нет власти ;)
Приватные разговоры
Помощь Пользователи
    Вы не присоединились ни к одной комнате.