За последнюю неделю опубликовано 52 новых материалов.
Инструкция новичку Путеводитель по форуму Прокси для Telegram Показать подсказки , это бомба!

Скачать Sammy Davis, Jr. - The Definitive Collection (2006) FLAC бесплатно через торрент

  • Поучаствуй (в качестве покупателя) в любых пяти совместных покупках (кроме завершённых и "Моментальных") и получи группу "Новичок" навсегда -> ссылка на раздел
  • Получай до 480 рублей за каждого приглашенного пользователя!
    представляем Вам очередное расширение партнерской программы, подробности описаны тут -> ссылка
  • 90% материалов доступно к скачиванию после простой регистрации!
    Если же ты хочешь скачивать материалы без требования оставлять отзывы то получи группу "Новичок", 10 способов повышения описаны тут -> ссылка
  • К сожалению количество битых ссылок растет и мы уже не можем их оперативно восстанавливать поэтому просим помощи у каждого нашего пользователя.
    С сегодняшнего дня, за каждую восстановленную ссылку мы заплатим Вам.
    Подробнее тут -> ссылка
  • Перенесем твои заслуги с другого ресурса!
    Мы понимаем как сложно прокачивать аккаунты на форумах, вроде раскачал аккаунт, а тут появляется ресурс в 100 раз круче но тоже с системой прокачки и снова качать аккаунт...
    Предлагаем вам перенести Ваши заслуги на другом подобном ресурсе к нам.
    Подробности описаны тут -> ссылка
  • Вы можете получать по 2.5% с каждой покупки и продажи на маркете! Подробности в теме Партнёрская программа

Torrent_Bot

Торрент-Бот
Бот форума
4 Окт 2016
93
160
20



Название: The Definitive Collection
Исполнитель: Sammy Davis, Jr.
Год: 2006
Жанр: Vocal Jazz
Страна: U.S.

Продолжительность: 01:04:08
Формат/Кодек: FLAC
Битрейт аудио: lossless

Трек-лист
01. Hey There (2:48)
02. The Birth of the Blues (3:18)
03. Something's Gotta Give (2:05)
04. Love Me or Leave Me (2:58)
05. That Old Black Magic (3:20)
06. Too Close for Comfort (2:22)
07. There's a Boat Dat's Leavin' Soon for New York (4:01)
08. The Lady Is a Tramp (4:23)
09. What Kind of Fool Am I? (3:23)
10. Gonna Build a Mountain (2:23)
11. The Shelter of Your Arms (2:52)
12. Night Song (4:07)
13. My Shining Hour (2:11)
14. Lonely Is the Name (3:14)
15. I've Gotta Be Me (2:56)
16. The Rhythm of Life (3:54)
17. The Candy Man (3:12)
18. Mr. Bojangles (5:46)
19. The People Tree (2:30)
20. Keep Your Eye on the Sparrow (Baretta's Theme) (2:25)
Отчет ЕАС
Exact Audio Copy V1.3 from 2. September 2016

EAC extraction logfile from 18. October 2017, 16:21

Sammy Davis Jr. / The Definitive Collection

Used drive : Optiarc BD RW BD-5300S Adapter: 1 ID: 0

Read mode : Secure
Utilize accurate stream : Yes
Defeat audio cache : Yes
Make use of C2 pointers : No

Read offset correction : 6
Overread into Lead-In and Lead-Out : No
Fill up missing offset samples with silence : Yes
Delete leading and trailing silent blocks : No
Null samples used in CRC calculations : Yes
Used interface : Native Win32 interface for Win NT & 2000
Gap handling : Appended to previous track

Used output format : User Defined Encoder
Selected bitrate : 1024 kBit/s
Quality : High
Add ID3 tag : No
Command line compressor : D:programsExact Audio CopyFlacflac.exe
Additional command line options : -8 -e -p -V -T "ARTIST=%artist%" -T "TITLE=%title%" -T "ALBUM=%albumtitle%" -T "DATE=%year%" -T "TRACKNUMBER=%tracknr%" -T "GENRE=%genre%" -T "PERFORMER=%albuminterpret%" -T "COMPOSER=%composer%" %haslyrics%--tag-from-file=LYRICS="%lyricsfile%"%haslyrics% -T "ALBUMARTIST=%albumartist%" -T "DISCNUMBER=%cdnumber%" -T "TOTALDISCS=%totalcds%" -T "TOTALTRACKS=%numtracks%" -T "COMMENT=%comment%" %source% -o %dest%

TOC of the extracted CD

Track | Start | Length | Start sector | End sector
---------------------------------------------------------
1 | 0:00.00 | 2:48.05 | 0 | 12604
2 | 2:48.05 | 3:17.74 | 12605 | 27453
3 | 6:06.04 | 2:05.09 | 27454 | 36837
4 | 8:11.13 | 2:58.00 | 36838 | 50187
5 | 11:09.13 | 3:20.00 | 50188 | 65187
6 | 14:29.13 | 2:21.57 | 65188 | 75819
7 | 16:50.70 | 4:00.67 | 75820 | 93886
8 | 20:51.62 | 4:22.49 | 93887 | 113585
9 | 25:14.36 | 3:23.20 | 113586 | 128830
10 | 28:37.56 | 2:23.33 | 128831 | 139588
11 | 31:01.14 | 2:51.49 | 139589 | 152462
12 | 33:52.63 | 4:06.55 | 152463 | 170967
13 | 37:59.43 | 2:10.70 | 170968 | 180787
14 | 40:10.38 | 3:14.08 | 180788 | 195345
15 | 43:24.46 | 2:55.52 | 195346 | 208522
16 | 46:20.23 | 3:54.27 | 208523 | 226099
17 | 50:14.50 | 3:12.20 | 226100 | 240519
18 | 53:26.70 | 5:45.58 | 240520 | 266452
19 | 59:12.53 | 2:30.07 | 266453 | 277709
20 | 61:42.60 | 2:24.52 | 277710 | 288561

Track 1

Filename E:TempEAC RipsSammy Davis Jr. - The Definitive Collection (2006) [FLAC]
 

Вложения

  • 18,9 KB Просмотры: 0
    Личеров 0
    Сидеров 0
    Файлов 27
    Объем 419,9 MB

Привет!

Мы группа людей которые решили помочь другим в решении их проблем, а так же пользователям с поиском самых свежих и качественных инфопродуктов. За 4 с небольшим месяца мы создали этот форум на который заходят ежедневно тысячи человек и посещаемость постоянно растёт. Мы создали панель лицензирования для защиты PHP скриптов от воровства и SEO панель для мониторинга наших сайтов и выбора верной стратегии их развития. Мы надеемся что то что мы создали пригодится Вам и возможно Вы поможете нам развиваться и совершенствоваться вместе с Вами.

Статистика форума

Темы
406.648
Сообщения
465.113
Пользователи
84.625
Новый пользователь
kris_kelt

Приложения форума для iOS и Android


У ркн там нет власти ;)
Приватные разговоры
Помощь Пользователи
    Вы не присоединились ни к одной комнате.