За последнюю неделю опубликовано 30 новых материалов.
Инструкция новичку Путеводитель по форуму Прокси для Telegram Показать подсказки , это бомба!

Скачать С первого взгляда / At First Sight (1999) BDRip-AVC | P бесплатно через торрент

  • Поучаствуй (в качестве покупателя) в любых пяти совместных покупках (кроме завершённых и "Моментальных") и получи группу "Новичок" навсегда -> ссылка на раздел
  • Получай до 480 рублей за каждого приглашенного пользователя!
    представляем Вам очередное расширение партнерской программы, подробности описаны тут -> ссылка
  • 90% материалов доступно к скачиванию после простой регистрации!
    Если же ты хочешь скачивать материалы без требования оставлять отзывы то получи группу "Новичок", 10 способов повышения описаны тут -> ссылка
  • К сожалению количество битых ссылок растет и мы уже не можем их оперативно восстанавливать поэтому просим помощи у каждого нашего пользователя.
    С сегодняшнего дня, за каждую восстановленную ссылку мы заплатим Вам.
    Подробнее тут -> ссылка
  • Перенесем твои заслуги с другого ресурса!
    Мы понимаем как сложно прокачивать аккаунты на форумах, вроде раскачал аккаунт, а тут появляется ресурс в 100 раз круче но тоже с системой прокачки и снова качать аккаунт...
    Предлагаем вам перенести Ваши заслуги на другом подобном ресурсе к нам.
    Подробности описаны тут -> ссылка
  • Вы можете получать по 2.5% с каждой покупки и продажи на маркете! Подробности в теме Партнёрская программа
Если Вы не хотите скачивать, Вы всегда можетепосмотретьонлайн, просто нажмите кнопку ниже :

Открыть плеер

Torrent_Bot

Торрент-Бот
Бот форума
4 Окт 2016
93
160
20

Информация о фильме
Название: С первого взгляда
Оригинальное название: At First Sight
Год выхода: 1999
Жанр: Драма, мелодрама
Режиссёр: Ирвин Уинклер
В ролях: Вэл Килмер, Мира Сорвино, Келли МакГиллис, Стивен Уэбер, Брюс Дэвисон, Нэйтан Лейн, Кен Ховард, Лаура Кирк, Марго Уинклер, Дайана Кролл

О фильме:
Картина снята на основе реальных событий, описанных известным американским писателем Оливером Саксом. Увидеть мир, который не мог видеть раньше, — это как родиться во второй раз. Еще ребенком Вирджил ослеп и потом вынужден был жить в мире, в котором… который он даже не знал как выглядит. Что такое цвет, пейзаж, как выглядит любимая девушка? И тут случилось чудо: хирург делает невозможное и возвращает Вирджилу, уже молодому человеку, зрение! Вот бинты после операции сняты и ему предстоит увидеть мир СВОИМИ глазами.



Страна: США
Студия: Metro-Goldwyn-Mayer
Продолжительность: 02:08:49
Перевод: Профессиональный (многоголосый, закадровый)
Субтитры: Английские

Файл
Формат: Matroska
Качество: BDRip-AVC
Видео: 704x380 at 23.976 fps, [email protected], ~744 kbps
Аудио: AAC, 2 ch, ~64 kbps - | Русский | -MVO, ОРТ
Формат субтитров: softsub (SRT)
Навигация по главам: Есть

***Релиз от:-=DoMiNo=-

M/I
x264 [info]: frame I:1300 Avg QP:17.49 size: 29795
x264 [info]: frame P:37418 Avg QP:20.98 size: 8781
x264 [info]: frame B:146611 Avg QP:22.93 size: 2397
x264 [info]: consecutive B-frames: 1.5% 1.8% 6.0% 18.7% 16.5% 37.2% 8.5% 3.8% 1.8% 1.3% 0.6% 0.8% 0.4% 0.4% 0.3%

General
Format : Matroska
Format version : Version 4
File size : 745 MiB
Duration : 2 h 8 min
Overall bit rate : 809 kb/s
Movie name : С первого взгляда.(1999).BDRip-AVC.[-=DoMiNo=-]
Encoded date : UTC 2020-08-12 19:23:07
Writing application : mkvmerge v49.0.0 ('Sick Of Losing Soulmates') 64-bit
Writing library : libebml v1.4.0 + libmatroska v1.6.1
Cover : Yes
Attachments : Cover.jpg / Cover 2.jpg

Video
ID : 1
Format : AVC
Format/Info : Advanced Video Codec
Format profile : [email protected]
Format settings : CABAC / 15 Ref Frames
Format settings, CABAC : Yes
Format settings, Reference : 15 frames
Codec ID : V_MPEG4/ISO/AVC
Duration : 2 h 8 min
Bit rate : 744 kb/s
Width : 704 pixels
Height : 380 pixels
Display aspect ratio : 1.85:1
Frame rate mode : Constant
Frame rate : 23.976 (24000/1001) FPS
Color space : YUV
Chroma subsampling : 4:2:0
Bit depth : 8 bits
Scan type : Progressive
Bits/(Pixel*Frame) : 0.116
Stream size : 685 MiB (92%)
Title : -=DoMiNo=-
Writing library : x264 core 161 r3018 db0d417
Encoding settings : cabac=1 / ref=15 / deblock=1:-3:-3 / analyse=0x3:0x133 / me=umh / subme=11 / psy=1 / psy_rd=1.05:0.00 / mixed_ref=1 / me_range=32 / chroma_me=1 / trellis=2 / 8x8dct=1 / cqm=0 / deadzone=21,11 / fast_pskip=0 / chroma_qp_offset=-2 / threads=6 / lookahead_threads=1 / sliced_threads=0 / nr=0 / decimate=0 / interlaced=0 / bluray_compat=0 / constrained_intra=0 / bframes=14 / b_pyramid=2 / b_adapt=2 / b_bias=0 / direct=3 / weightb=1 / open_gop=0 / weightp=2 / keyint=250 / keyint_min=23 / scenecut=40 / intra_refresh=0 / rc_lookahead=60 / rc=2pass / mbtree=0 / bitrate=744 / ratetol=1.0 / qcomp=0.75 / qpmin=0 / qpmax=69 / qpstep=4 / cplxblur=20.0 / qblur=0.5 / vbv_maxrate=50000 / vbv_bufsize=62500 / nal_hrd=none / filler=0 / ip_ratio=1.40 / pb_ratio=1.30 / aq=1:1.00
Language : English
Default : Yes
Forced : No
Color range : Limited
Color primaries : BT.709
Transfer characteristics : BT.709
Matrix coefficients : BT.709

Audio
ID : 2
Format : AAC LC SBR
Format/Info : Advanced Audio Codec Low Complexity with Spectral Band Replication
Commercial name : HE-AAC
Format settings : Explicit
Codec ID : A_AAC-2
Duration : 2 h 8 min
Bit rate : 62.7 kb/s
Channel(s) : 2 channels
Channel layout : L R
Sampling rate : 48.0 kHz
Frame rate : 23.438 FPS (2048 SPF)
Compression mode : Lossy
Stream size : 57.8 MiB (8%)
Title : MVO, ОРТ
Language : Russian
Default : Yes
Forced : No

Text
ID : 3
Format : UTF-8
Codec ID : S_TEXT/UTF8
Codec ID/Info : UTF-8 Plain Text
Duration : 2 h 2 min
Bit rate : 60 b/s
Count of elements : 1574
Stream size : 54.4 KiB (0%)
Title : Full
Language : English
Default : No
Forced : No

Menu
00:00:00.000 : en:Chapter 1
00:15:22.254 : en:Chapter 2
00:30:52.475 : en:Chapter 3
00:48:19.980 : en:Chapter 4
01:03:54.872 : en:Chapter 5
01:18:27.994 : en:Chapter 6
01:32:15.279 : en:Chapter 7
01:51:04.157 : en:Chapter 8
Скриншоты
 

Вложения

  • 30,2 KB Просмотры: 0
    Личеров 0
    Сидеров 0
    Файлов 1
    Объем 745,1 MB

Привет!

Мы группа людей которые решили помочь другим в решении их проблем, а так же пользователям с поиском самых свежих и качественных инфопродуктов. За 4 с небольшим месяца мы создали этот форум на который заходят ежедневно тысячи человек и посещаемость постоянно растёт. Мы создали панель лицензирования для защиты PHP скриптов от воровства и SEO панель для мониторинга наших сайтов и выбора верной стратегии их развития. Мы надеемся что то что мы создали пригодится Вам и возможно Вы поможете нам развиваться и совершенствоваться вместе с Вами.

Статистика форума

Темы
406.605
Сообщения
465.025
Пользователи
84.385
Новый пользователь
SomeCat123

Приложения форума для iOS и Android


У ркн там нет власти ;)
Приватные разговоры
Помощь Пользователи
    Вы не присоединились ни к одной комнате.