За последнюю неделю опубликовано 60 новых материалов.
Инструкция новичку Путеводитель по форуму Прокси для Telegram Показать подсказки , это бомба!

Скачать С новым годом, мамы! (2012) BDRip 1080p бесплатно через торрент

  • Поучаствуй (в качестве покупателя) в любых пяти совместных покупках (кроме завершённых и "Моментальных") и получи группу "Новичок" навсегда -> ссылка на раздел
  • Получай до 480 рублей за каждого приглашенного пользователя!
    представляем Вам очередное расширение партнерской программы, подробности описаны тут -> ссылка
  • 90% материалов доступно к скачиванию после простой регистрации!
    Если же ты хочешь скачивать материалы без требования оставлять отзывы то получи группу "Новичок", 10 способов повышения описаны тут -> ссылка
  • К сожалению количество битых ссылок растет и мы уже не можем их оперативно восстанавливать поэтому просим помощи у каждого нашего пользователя.
    С сегодняшнего дня, за каждую восстановленную ссылку мы заплатим Вам.
    Подробнее тут -> ссылка
  • Перенесем твои заслуги с другого ресурса!
    Мы понимаем как сложно прокачивать аккаунты на форумах, вроде раскачал аккаунт, а тут появляется ресурс в 100 раз круче но тоже с системой прокачки и снова качать аккаунт...
    Предлагаем вам перенести Ваши заслуги на другом подобном ресурсе к нам.
    Подробности описаны тут -> ссылка
  • Вы можете получать по 2.5% с каждой покупки и продажи на маркете! Подробности в теме Партнёрская программа
Если Вы не хотите скачивать, Вы всегда можетепосмотретьонлайн, просто нажмите кнопку ниже :

Открыть плеер

Torrent_Bot

Торрент-Бот
Бот форума
4 Окт 2016
81
189
20
Информация о фильме
Название: С новым годом, мамы!
Год выхода: 2012
Жанр: комедия, семейный
Режиссер: Сарик Андреасян, Артем Аксененко, Дмитрий Грачев
В ролях: Елизавета Боярская, Максим Матвеев, Павел Воля, Ирина Розанова, Ален Делон, Екатерина Вилкова, Светлана Иванова, Максим Виторган, Константин Крюков, Гарик Харламов

О фильме:
В новой ленте зрители увидят новые истории и новые приключения новых героев, объединенных одним чувством — любовью к МАМЕ.
5 новелл. Смешные и трогательные, лиричные и комичные — каждая новелла расскажет историю мамы и ребенка, двух самых близких людей на свете. Ведь что бы ни происходило, мама всегда остается тем человеком, который будет любить всегда и несмотря ни на что…



Выпущено: Россия
Продолжительность: 01:24:20
Перевод: Оригинал

Файл
Кодек: x264
Качество: BDRip 1080p
Видео: 1920x816, 6784 Kbps, 24.000 fps
Аудио: AC-3, 6 ch, 640 kbps
Субтитры: нет

Скриншоты
MI
Общее
Уникальный идентификатор : 195005163884269189668480313899740280732 (0x92B4A0E1AC19567D9209075CA0C3B79C)
Полное имя : С новым годом, мамы!2012.BDRip.1080p.Rus.mkv
Формат : Matroska
Версия формата : Version 4 / Version 2
Размер файла : 4,37 Гбайт
Продолжительность : 1 ч. 24 м.
Общий поток : 7424 Кбит/сек
Название фильма : С новым годом, мамы!2012
Дата кодирования : UTC 2013-01-27 10:45:50
Программа кодирования : mkvmerge v6.0.0 ('Coming Up For Air') built on Jan 20 2013 09:52:00
Библиотека кодирования : libebml v1.3.0 + libmatroska v1.4.0

Видео
Идентификатор : 1
Формат : AVC
Формат/Информация : Advanced Video Codec
Профиль формата : [email protected]
Параметр CABAC формата : Да
Параметр ReFrames формата : 5 кадров
Идентификатор кодека : V_MPEG4/ISO/AVC
Продолжительность : 1 ч. 24 м.
Битрейт : 6784 Кбит/сек
Ширина : 1920 пикселей
Высота : 816 пикселей
Соотношение сторон : 2,35:1
Режим частоты кадров : Постоянный
Частота кадров : 24,000 кадра/сек
Цветовое пространство : YUV
Субдискретизация насыщенности : 4:2:0
Битовая глубина : 8 бит
Тип развёртки : Прогрессивная
Бит/(Пиксели*Кадры) : 0.180
Размер потока : 3,91 Гбайт (89%)
Заголовок : Rip by Boriy
Библиотека кодирования : x264 core 129 r2245 bc13772
Настройки программы : cabac=1 / ref=5 / deblock=1:0:0 / analyse=0x3:0x113 / me=umh / subme=10 / psy=1 / psy_rd=1.00:0.10 / mixed_ref=1 / me_range=32 / chroma_me=1 / trellis=2 / 8x8dct=1 / cqm=0 / deadzone=21,11 / fast_pskip=0 / chroma_qp_offset=-2 / threads=12 / lookahead_threads=2 / sliced_threads=0 / nr=0 / decimate=0 / interlaced=0 / bluray_compat=0 / constrained_intra=0 / bframes=5 / b_pyramid=2 / b_adapt=2 / b_bias=0 / direct=3 / weightb=1 / open_gop=0 / weightp=2 / keyint=240 / keyint_min=24 / scenecut=40 / intra_refresh=0 / rc=2pass / mbtree=0 / bitrate=6784 / ratetol=1.0 / qcomp=0.60 / qpmin=0 / qpmax=69 / qpstep=4 / cplxblur=20.0 / qblur=0.5 / ip_ratio=1.40 / pb_ratio=1.30 / aq=1:0.80
Язык : English
Default : Да
Forced : Нет

Аудио
Идентификатор : 2
Формат : AC-3
Формат/Информация : Audio Coding 3
Расширение режима : CM (complete main)
Параметр Endianness формата : Big
Идентификатор кодека : A_AC3
Продолжительность : 1 ч. 24 м.
Вид битрейта : Постоянный
Битрейт : 640 Кбит/сек
Каналы : 6 каналов
Расположение каналов : Front: L C R, Side: L R, LFE
Частота : 48,0 КГц
Битовая глубина : 16 бит
Метод сжатия : С потерями
Размер потока : 386 Мбайт (9%)
Заголовок : Оригинал
Язык : Russian
Default : Да
Forced : Нет

Меню
00:00:00.000 : :Chapter 1
00:06:25.958 : :Chapter 2
00:10:41.708 : :Chapter 3
00:15:20.250 : :Chapter 4
00:22:55.375 : :Chapter 5
00:31:04.916 : :Chapter 6
00:38:52.000 : :Chapter 7
00:43:55.791 : :Chapter 8
00:48:07.041 : :Chapter 9
00:52:13.916 : :Chapter 10
00:59:28.875 : :Chapter 11
01:03:45.666 : :Chapter 12
01:10:33.291 : :Chapter 13
01:15:56.833 : :Chapter 14
01:20:32.750 : :Chapter 15
01:24:15.333 : :Chapter 16
 

Вложения

  • 22,9 KB Просмотры: 1
    Личеров 0
    Сидеров 0
    Файлов 1
    Объем 4,4 GB

Привет!

Мы группа людей которые решили помочь другим в решении их проблем, а так же пользователям с поиском самых свежих и качественных инфопродуктов. За 4 с небольшим месяца мы создали этот форум на который заходят ежедневно тысячи человек и посещаемость постоянно растёт. Мы создали панель лицензирования для защиты PHP скриптов от воровства и SEO панель для мониторинга наших сайтов и выбора верной стратегии их развития. Мы надеемся что то что мы создали пригодится Вам и возможно Вы поможете нам развиваться и совершенствоваться вместе с Вами.

Статистика форума

Темы
412.947
Сообщения
472.272
Пользователи
93.214
Новый пользователь
ГаляГаляГаля

Приложения форума для iOS и Android


У ркн там нет власти ;)
Приватные разговоры
Помощь Пользователи
    Вы не присоединились ни к одной комнате.