За последнюю неделю опубликовано 0 новых материалов.
Инструкция новичку Путеводитель по форуму Прокси для Telegram Показать подсказки , это бомба!

Скачать С 8 марта, мужчины! (2014) WEB-DLRip от ivandubskoj бесплатно через торрент

  • Поучаствуй (в качестве покупателя) в любых пяти совместных покупках (кроме завершённых и "Моментальных") и получи группу "Новичок" навсегда -> ссылка на раздел
  • Получай до 480 рублей за каждого приглашенного пользователя!
    представляем Вам очередное расширение партнерской программы, подробности описаны тут -> ссылка
  • 90% материалов доступно к скачиванию после простой регистрации!
    Если же ты хочешь скачивать материалы без требования оставлять отзывы то получи группу "Новичок", 10 способов повышения описаны тут -> ссылка
  • К сожалению количество битых ссылок растет и мы уже не можем их оперативно восстанавливать поэтому просим помощи у каждого нашего пользователя.
    С сегодняшнего дня, за каждую восстановленную ссылку мы заплатим Вам.
    Подробнее тут -> ссылка
  • Перенесем твои заслуги с другого ресурса!
    Мы понимаем как сложно прокачивать аккаунты на форумах, вроде раскачал аккаунт, а тут появляется ресурс в 100 раз круче но тоже с системой прокачки и снова качать аккаунт...
    Предлагаем вам перенести Ваши заслуги на другом подобном ресурсе к нам.
    Подробности описаны тут -> ссылка
  • Вы можете получать по 2.5% с каждой покупки и продажи на маркете! Подробности в теме Партнёрская программа
Если Вы не хотите скачивать, Вы всегда можетепосмотретьонлайн, просто нажмите кнопку ниже :

Открыть плеер

Torrent_Bot

Торрент-Бот
Бот форума
4 Окт 2016
79
196
20
Информация о фильме
Название: С 8 марта, мужчины!
Год выхода: 2014
Жанр: Комедия, мелодрама, фэнтези
Режиссёр: Артём Аксененко
В ролях: Мария Берсенева, Максим Виторган, Светлана Иванова, Михаил Башкатов, Вера Алентова, Константин Лавиш, Ксения Бородина, Владислав Лисовец, Стивен Нельсон, Алексей Климушкин

О фильме: Анна Беркутова — блондинка в броне из мини-юбки и глубокого декольте. Ее оружие — красота, ум и абсолютная уверенность в том, что она знает мужчин. Она ведет важный проект в Сколково и собирается замуж за богатого иностранца. Но в день ее рождения, 8 марта, ее четкая, как финансовый отчет, судьба меняется: Аню бросает жених, ее проект крадут из Сколково, а сама она начинает слышать мысли мужчин. Эта способность сначала доводит ее до отчаяния, а затем открывает широкие возможности…



Выпущено: Беларусьфильм, Москит, Россия, Беларусь
Продолжительность: 01:38:34
Перевод: Не требуется

Файл
Качество: WEB-DLRip (Исходник: WEB-DL (720p))
Видео: XviD, 704x400 (16:9), 25 кадр/с, 1735 Кбит/с
Аудио: Русский, Dolby AC3, 48000 Гц, 384 Кбит/с, 6 каналов (5.1)



Автор рипа - ivandubskoj

MediaInfo
General
Complete name : S.8.Marta.Muzchiny.2014.WEB-DLRip.avi
Format : AVI
Format/Info : Audio Video Interleave
File size : 1.46 GiB
Duration : 1h 38mn
Overall bit rate : 2 126 Kbps
Movie name : С 8 марта, мужчины! (2014) WEB-DLRip
Genre : Мелодрама, комедия, фэнтези
Recorded date : 09.05.2014
Writing application : VirtualDubMod 1.5.10.3 | www.virtualdub-fr.org || (build 2550/release)
Writing library : VirtualDubMod build 2550/release
Copyright : rip by ivandubskoj

Video
ID : 0
Format : MPEG-4 Visual
Format profile : Advanced [email protected]
Format settings, BVOP : 1
Format settings, QPel : No
Format settings, GMC : No warppoints
Format settings, Matrix : Default (MPEG)
Codec ID : XVID
Codec ID/Hint : XviD
Duration : 1h 38mn
Bit rate : 1 734 Kbps
Width : 704 pixels
Height : 400 pixels
Display aspect ratio : 16:9
Frame rate : 25.000 fps
Color space : YUV
Chroma subsampling : 4:2:0
Bit depth : 8 bits
Scan type : Progressive
Compression mode : Lossy
Bits/(Pixel*Frame) : 0.246
Stream size : 1.19 GiB (82%)
Writing library : XviD 73

Audio
ID : 1
Format : AC-3
Format/Info : Audio Coding 3
Mode extension : CM (complete main)
Codec ID : 2000
Duration : 1h 38mn
Bit rate mode : Constant
Bit rate : 384 Kbps
Channel(s) : 6 channels
Channel positions : Front: L C R, Side: L R, LFE
Sampling rate : 48.0 KHz
Bit depth : 16 bits
Compression mode : Lossy
Stream size : 271 MiB (18%)
Alignment : Split accross interleaves
Interleave, duration : 64 ms (1.60 video frames)
Interleave, preload duration : 500 ms
Title : Russian
Скриншот c названием фильма
Скриншоты
 

Вложения

  • 15,7 KB Просмотры: 0
    Личеров 0
    Сидеров 0
    Файлов 1
    Объем 1,5 GB

Привет!

Мы группа людей которые решили помочь другим в решении их проблем, а так же пользователям с поиском самых свежих и качественных инфопродуктов. За 4 с небольшим месяца мы создали этот форум на который заходят ежедневно тысячи человек и посещаемость постоянно растёт. Мы создали панель лицензирования для защиты PHP скриптов от воровства и SEO панель для мониторинга наших сайтов и выбора верной стратегии их развития. Мы надеемся что то что мы создали пригодится Вам и возможно Вы поможете нам развиваться и совершенствоваться вместе с Вами.

Статистика форума

Темы
414.370
Сообщения
475.396
Пользователи
96.561
Новый пользователь
starushka

Приложения форума для iOS и Android


У ркн там нет власти ;)
Приватные разговоры
Помощь Пользователи
    Вы не присоединились ни к одной комнате.