За последнюю неделю опубликовано 84 новых материалов.
Инструкция новичку Путеводитель по форуму Прокси для Telegram Показать подсказки , это бомба!

Скачать С 8 марта, мужчины! (2014) WEB-DLRip от ivandubskoj бесплатно через торрент

  • Поучаствуй (в качестве покупателя) в любых пяти совместных покупках (кроме завершённых и "Моментальных") и получи группу "Новичок" навсегда -> ссылка на раздел
  • Получай до 480 рублей за каждого приглашенного пользователя!
    представляем Вам очередное расширение партнерской программы, подробности описаны тут -> ссылка
  • 90% материалов доступно к скачиванию после простой регистрации!
    Если же ты хочешь скачивать материалы без требования оставлять отзывы то получи группу "Новичок", 10 способов повышения описаны тут -> ссылка
  • К сожалению количество битых ссылок растет и мы уже не можем их оперативно восстанавливать поэтому просим помощи у каждого нашего пользователя.
    С сегодняшнего дня, за каждую восстановленную ссылку мы заплатим Вам.
    Подробнее тут -> ссылка
  • Перенесем твои заслуги с другого ресурса!
    Мы понимаем как сложно прокачивать аккаунты на форумах, вроде раскачал аккаунт, а тут появляется ресурс в 100 раз круче но тоже с системой прокачки и снова качать аккаунт...
    Предлагаем вам перенести Ваши заслуги на другом подобном ресурсе к нам.
    Подробности описаны тут -> ссылка
  • Вы можете получать по 2.5% с каждой покупки и продажи на маркете! Подробности в теме Партнёрская программа
Если Вы не хотите скачивать, Вы всегда можетепосмотретьонлайн, просто нажмите кнопку ниже :

Открыть плеер

Torrent_Bot

Торрент-Бот
Бот форума
4 Окт 2016
104
152
20
Информация о фильме
Название: С 8 марта, мужчины!
Год выхода: 2014
Жанр: Комедия, мелодрама, фэнтези
Режиссёр: Артём Аксененко
В ролях: Мария Берсенева, Максим Виторган, Светлана Иванова, Михаил Башкатов, Вера Алентова, Константин Лавиш, Ксения Бородина, Владислав Лисовец, Стивен Нельсон, Алексей Климушкин

О фильме: Анна Беркутова - блондинка в броне из мини-юбки и глубокого декольте. Её оружие - красота, ум и абсолютная уверенность в том, что она знает мужчин. Она ведёт важный проект в Сколково и собирается замуж за богатого иностранца. Но в день её рождения, 8 марта, её чёткая, как финансовый отчёт, судьба меняется: Аню бросает жених, её проект крадут из Сколково, а сама она начинает слышать мысли мужчин. Эта способность сначала доводит её до отчаяния, а затем открывает широкие возможности…



Выпущено: Беларусьфильм, Москит, Россия, Беларусь
Продолжительность: 01:38:33
Перевод: Не требуется

Файл
Качество: WEB-DLRip (Исходник: WEB-DL (720p))
Видео: XviD, 624x352 (16:9), 25 кадр/с, 921 Кбит/с
Аудио: Русский, MP3, 48000 Гц, 128 Кбит/с, 2 канала (Стерео)



Автор рипа - ivandubskoj

MediaInfo
General
Complete name : S.8.Marta.Muzchiny.2014.WEB-DLRip.745MB.avi
Format : AVI
Format/Info : Audio Video Interleave
File size : 745 MiB
Duration : 1h 38mn
Overall bit rate : 1 057 Kbps
Movie name : С 8 марта, мужчины! (2014) WEB-DLRip
Genre : Мелодрама, комедия, фэнтези
Recorded date : 10.05.2014
Writing application : VirtualDubMod 1.5.10.3 | www.virtualdub-fr.org || (build 2550/release)
Writing library : VirtualDubMod build 2550/release
Copyright : rip by ivandubskoj

Video
ID : 0
Format : MPEG-4 Visual
Format profile : Advanced Simple@L5
Format settings, BVOP : 2
Format settings, QPel : No
Format settings, GMC : No warppoints
Format settings, Matrix : Default (MPEG)
Codec ID : XVID
Codec ID/Hint : XviD
Duration : 1h 38mn
Bit rate : 920 Kbps
Width : 624 pixels
Height : 352 pixels
Display aspect ratio : 16:9
Frame rate : 25.000 fps
Color space : YUV
Chroma subsampling : 4:2:0
Bit depth : 8 bits
Scan type : Progressive
Compression mode : Lossy
Bits/(Pixel*Frame) : 0.167
Stream size : 648 MiB (87%)
Writing library : XviD 73

Audio
ID : 1
Format : MPEG Audio
Format version : Version 1
Format profile : Layer 3
Codec ID : 55
Codec ID/Hint : MP3
Duration : 1h 38mn
Bit rate mode : Constant
Bit rate : 128 Kbps
Channel(s) : 2 channels
Sampling rate : 48.0 KHz
Compression mode : Lossy
Stream size : 90.2 MiB (12%)
Alignment : Aligned on interleaves
Interleave, duration : 40 ms (1.00 video frame)
Interleave, preload duration : 504 ms
Title : Russian
Writing library : LAME3.99r
Encoding settings : -m s -V 4 -q 0 -lowpass 17 -b 128
Скриншот c названием фильма
Скриншоты


 

Вложения

  • 15,6 KB Просмотры: 1
    Личеров 0
    Сидеров 0
    Файлов 1
    Объем 745,5 MB

Привет!

Мы группа людей которые решили помочь другим в решении их проблем, а так же пользователям с поиском самых свежих и качественных инфопродуктов. За 4 с небольшим месяца мы создали этот форум на который заходят ежедневно тысячи человек и посещаемость постоянно растёт. Мы создали панель лицензирования для защиты PHP скриптов от воровства и SEO панель для мониторинга наших сайтов и выбора верной стратегии их развития. Мы надеемся что то что мы создали пригодится Вам и возможно Вы поможете нам развиваться и совершенствоваться вместе с Вами.

Статистика форума

Темы
404.550
Сообщения
461.464
Пользователи
80.103
Новый пользователь
MetthewXXX

Приложения форума для iOS и Android


У ркн там нет власти ;)
Приватные разговоры
Помощь Пользователи
    Вы не присоединились ни к одной комнате.