За последнюю неделю опубликовано 47 новых материалов.
Инструкция новичку Путеводитель по форуму Прокси для Telegram Показать подсказки , это бомба!

Скачать Ржев (2019) BDRip-AVC | Лицензия бесплатно через торрент

  • Поучаствуй (в качестве покупателя) в любых пяти совместных покупках (кроме завершённых и "Моментальных") и получи группу "Новичок" навсегда -> ссылка на раздел
  • Получай до 480 рублей за каждого приглашенного пользователя!
    представляем Вам очередное расширение партнерской программы, подробности описаны тут -> ссылка
  • 90% материалов доступно к скачиванию после простой регистрации!
    Если же ты хочешь скачивать материалы без требования оставлять отзывы то получи группу "Новичок", 10 способов повышения описаны тут -> ссылка
  • К сожалению количество битых ссылок растет и мы уже не можем их оперативно восстанавливать поэтому просим помощи у каждого нашего пользователя.
    С сегодняшнего дня, за каждую восстановленную ссылку мы заплатим Вам.
    Подробнее тут -> ссылка
  • Перенесем твои заслуги с другого ресурса!
    Мы понимаем как сложно прокачивать аккаунты на форумах, вроде раскачал аккаунт, а тут появляется ресурс в 100 раз круче но тоже с системой прокачки и снова качать аккаунт...
    Предлагаем вам перенести Ваши заслуги на другом подобном ресурсе к нам.
    Подробности описаны тут -> ссылка
  • Вы можете получать по 2.5% с каждой покупки и продажи на маркете! Подробности в теме Партнёрская программа
Если Вы не хотите скачивать, Вы всегда можетепосмотретьонлайн, просто нажмите кнопку ниже :

Открыть плеер

Torrent_Bot

Торрент-Бот
Бот форума
4 Окт 2016
93
160
20


«Искупить кровью»


Информация о фильме
Название: Ржев
Год выхода: 2019
Жанр: Военный, драма, история
Режиссер: Игорь Копылов
В ролях: Сергей Жарков, Иван Батарев, Олег Гаянов, Арсений Семёнов, Александр Горбатов, Александр Бухаров, Григорий Некрасов, Игорь Грабузов, Александр Аравушкин, Дан Розин

О фильме:
1942 год. Ржевская битва. После боёв под селом Овсянниково от роты советских солдат осталась только треть. Бойцы пытаются продержаться до прихода подкрепления. Но из штаба поступает приказ удержать деревню любой ценой. Значит, отступать нельзя… Каждый из героев понимает, что выбраться живыми из этого переплёта почти невозможно. В этот момент в Овсянниково, едва не погибнув под вражеским обстрелом, прибывает младший лейтенант — начальник особого отдела, который должен найти и разоблачить предателей среди своих. Лейтенант уверен, что только так можно приблизить победу. События приобретают непредсказуемый оборот.




Страна: Россия
Студия: Триикс Медиа
Продолжительность: 01:58:12
Перевод: Не требуется | Лицензия Blu-ray RUS


Файл
Качество: BDRip-AVC
Исходник: RZHEV_2019_RUS_BLUEBIRD
Формат: MKV
Кодек: MPEG-4 AVC
Видео: 832x348 (2,40:1), 24 fps, MPEG-4 AVC, 1573 Кbps avg, 0.226 bit/pixel
Аудио: AC3, 48 kHz, 2 ch, ~192.00 kbps avg | русский | Blu-ray RUS
Субтитры: Отсутствуют

Инфо-файл
Общее
Уникальный идентификатор : 302014264306054843854410210973012615208 (0xE335D4DEE1D272899BA88E84A7DA6028)
Полное имя : Rzhev.2019.BDRip.1.46Gb.x264.mkv
Формат : Matroska
Версия формата : Version 4
Размер файла : 1,46 Гбайт
Продолжительность : 1 ч. 58 м.
Общий поток : 1 766 Кбит/сек
Название фильма : Ржев (2019)
Дата кодирования : UTC 2020-07-06 04:08:44
Программа кодирования : mkvmerge v47.0.0 ('Black Flag') 64-bit
Библиотека кодирования : libebml v1.3.10 + libmatroska v1.5.2
Обложка : Yes
Attachments : cover.jpg

Видео
Идентификатор : 1
Формат : AVC
Формат/Информация : Advanced Video Codec
Профиль формата : [email protected]
Настройки формата : CABAC / 12 Ref Frames
Параметр CABAC формата : Да
Параметр RefFrames формата : 12 кадров
Идентификатор кодека : V_MPEG4/ISO/AVC
Продолжительность : 1 ч. 58 м.
Битрейт : 1 573 Кбит/сек
Ширина : 832 пикселя
Высота : 348 пикселей
Соотношение сторон : 2,40:1
Режим частоты кадров : Постоянный
Частота кадров : 24,000 кадра/сек
Цветовое пространство : YUV
Субдискретизация насыщенности : 4:2:0
Битовая глубина : 8 бит
Тип развёртки : Прогрессивная
Бит/(Пиксели*Кадры) : 0.226
Размер потока : 1,30 Гбайт (89%)
Заголовок : #stillet
Библиотека кодирования : x264 core 152 r2851bm ba24899
Настройки программы : cabac=1 / ref=12 / deblock=1:-3:-3 / analyse=0x3:0x113 / me=umh / subme=10 / psy=1 / psy_rd=1.00:0.15 / mixed_ref=1 / me_range=32 / chroma_me=1 / trellis=2 / 8x8dct=1 / cqm=0 / deadzone=21,11 / fast_pskip=0 / chroma_qp_offset=-3 / threads=12 / lookahead_threads=3 / sliced_threads=0 / nr=0 / decimate=0 / interlaced=0 / bluray_compat=0 / constrained_intra=0 / bframes=11 / b_pyramid=2 / b_adapt=2 / b_bias=0 / direct=3 / weightb=1 / open_gop=0 / weightp=2 / keyint=240 / keyint_min=23 / scenecut=40 / intra_refresh=0 / rc=2pass / mbtree=0 / bitrate=1573 / ratetol=1.0 / qcomp=0.60 / qpmin=0 / qpmax=69 / qpstep=4 / cplxblur=20.0 / qblur=0.5 / ip_ratio=1.40 / pb_ratio=1.30 / aq=1:1.00
Язык : English
Default : Да
Forced : Нет

Аудио
Идентификатор : 2
Формат : AC-3
Формат/Информация : Audio Coding 3
Коммерческое название : Dolby Digital
Идентификатор кодека : A_AC3
Продолжительность : 1 ч. 58 м.
Вид битрейта : Постоянный
Битрейт : 192 Кбит/сек
Каналы : 2 канала
Channel layout : L R
Частота : 48,0 КГц
Частота кадров : 31,250 кадров/сек (1536 SPF)
Метод сжатия : С потерями
Размер потока : 162 Мбайт (11%)
Заголовок : Blu-ray RUS
Язык : Russian
Default : Да
Forced : Да

Меню
00:00:00.000 : ru:Глава 01
00:00:05.417 : ru:Глава 02
00:11:06.208 : ru:Глава 03
00:22:02.250 : ru:Глава 04
00:33:41.792 : ru:Глава 05
00:46:58.292 : ru:Глава 06
01:00:38.500 : ru:Глава 07
01:11:20.500 : ru:Глава 08
01:21:43.167 : ru:Глава 09
01:33:59.042 : ru:Глава 10
01:45:19.250 : ru:Глава 11
Скриншоты
 

Вложения

  • 15,5 KB Просмотры: 0
    Личеров 0
    Сидеров 0
    Файлов 1
    Объем 1,5 GB

Привет!

Мы группа людей которые решили помочь другим в решении их проблем, а так же пользователям с поиском самых свежих и качественных инфопродуктов. За 4 с небольшим месяца мы создали этот форум на который заходят ежедневно тысячи человек и посещаемость постоянно растёт. Мы создали панель лицензирования для защиты PHP скриптов от воровства и SEO панель для мониторинга наших сайтов и выбора верной стратегии их развития. Мы надеемся что то что мы создали пригодится Вам и возможно Вы поможете нам развиваться и совершенствоваться вместе с Вами.

Статистика форума

Темы
406.639
Сообщения
465.112
Пользователи
84.583
Новый пользователь
кцукецукцукцу

Приложения форума для iOS и Android


У ркн там нет власти ;)
Приватные разговоры
Помощь Пользователи
    Вы не присоединились ни к одной комнате.