За последнюю неделю опубликовано 59 новых материалов.
Инструкция новичку Путеводитель по форуму Прокси для Telegram Показать подсказки , это бомба!

Скачать Ржев (2019) BDRip 1080p от OlLanDGroup | Лицензия бесплатно через торрент

  • Поучаствуй (в качестве покупателя) в любых пяти совместных покупках (кроме завершённых и "Моментальных") и получи группу "Новичок" навсегда -> ссылка на раздел
  • Получай до 480 рублей за каждого приглашенного пользователя!
    представляем Вам очередное расширение партнерской программы, подробности описаны тут -> ссылка
  • 90% материалов доступно к скачиванию после простой регистрации!
    Если же ты хочешь скачивать материалы без требования оставлять отзывы то получи группу "Новичок", 10 способов повышения описаны тут -> ссылка
  • К сожалению количество битых ссылок растет и мы уже не можем их оперативно восстанавливать поэтому просим помощи у каждого нашего пользователя.
    С сегодняшнего дня, за каждую восстановленную ссылку мы заплатим Вам.
    Подробнее тут -> ссылка
  • Перенесем твои заслуги с другого ресурса!
    Мы понимаем как сложно прокачивать аккаунты на форумах, вроде раскачал аккаунт, а тут появляется ресурс в 100 раз круче но тоже с системой прокачки и снова качать аккаунт...
    Предлагаем вам перенести Ваши заслуги на другом подобном ресурсе к нам.
    Подробности описаны тут -> ссылка
  • Вы можете получать по 2.5% с каждой покупки и продажи на маркете! Подробности в теме Партнёрская программа
Если Вы не хотите скачивать, Вы всегда можетепосмотретьонлайн, просто нажмите кнопку ниже :

Открыть плеер

Torrent_Bot

Торрент-Бот
Бот форума
4 Окт 2016
92
163
20


Информация о фильме


Оригинальное название: Ржев
Год выпуска: 2019
Жанр:Военный, драма, история
Выпущено: Россия, Триикс Медиа
Режиссер: Игорь Копылов
В ролях: Сергей Жарков, Иван Батарев, Олег Гаянов, Арсений Семёнов, Александр Горбатов (II), Александр Бухаров, Григорий Некрасов, Игорь Грабузов, Александр Аравушкин, Дан Розин, Александр Плаксин, Андрей Коровниченко, Пётр Логачёв, Данила Воропаев, Олег Абалян, Роман Грибков, Пётр Маёршин, Фома Бызгу, Николай Яковлев (III), Евгений Антонов, Даниил Кокин, Сергей Агафонов


О фильме: 1942 год. Ржевская битва. После боев под селом Овсянниково от роты советских солдат осталась только треть. Бойцы пытаются продержаться до прихода подкрепления. Но из штаба поступает приказ удержать деревню любой ценой. Значит, отступать нельзя... Каждый из героев понимает, что живыми из этого переплета выбраться почти невозможно. В этот момент в Овсянниково, едва не погибнув под вражеским обстрелом, прибывает младший лейтенант - начальник особого отдела, который должен найти и разоблачить предателей среди своих. Лейтенант уверен, что только так можно приблизить победу. События приобретают непредсказуемый оборот.





Качество: BDRip (1080p)
Видео: MPEG-4 AVC, 9128 Kбит/с, 1920x804, 24 кадр/с
Аудио: Русский (AC3, 6 ch, 640 Кбит/с), (DTS, 6 ch, 1509 Кбит/с)
Размер: 9.31 ГБ
Продолжительность: 01:58:12
Язык: Русский


Озвучивание - (Лицензия)
Сохранены оригинальные чаптеры как на Blu-Ray.


x264
x264 [info]: frame I:1299 Avg QP:15.06 size:232766
x264 [info]: frame P:45047 Avg QP:17.87 size: 84091
x264 [info]: frame B:123877 Avg QP:19.60 size: 32314
x264 [info]: consecutive B-frames: 4.9% 5.8% 12.2% 27.8% 17.1% 22.6% 5.2% 2.5% 0.6% 0.9% 0.5%
x264 [info]: mb I I16..4: 6.1% 80.6% 13.3%
x264 [info]: mb P I16..4: 0.9% 17.6% 1.4% P16..4: 30.7% 34.8% 11.2% 1.4% 0.1% skip: 2.0%
x264 [info]: mb B I16..4: 0.2% 1.9% 0.2% B16..8: 38.3% 23.1% 3.6% direct: 7.7% skip:25.1% L0:42.6% L1:44.8% BI:12.7%
x264 [info]: 8x8 transform intra:86.9% inter:60.2%
x264 [info]: direct mvs spatial:99.1% temporal:0.9%
x264 [info]: coded y,uvDC,uvAC intra: 89.3% 86.1% 65.7% inter: 34.2% 32.6% 14.3%
x264 [info]: i16 v,h,dc,p: 34% 14% 8% 43%
x264 [info]: i8 v,h,dc,ddl,ddr,vr,hd,vl,hu: 8% 7% 10% 10% 14% 12% 13% 12% 14%
x264 [info]: i4 v,h,dc,ddl,ddr,vr,hd,vl,hu: 33% 6% 7% 7% 11% 9% 10% 8% 9%
x264 [info]: i8c dc,h,v,p: 48% 21% 16% 15%
x264 [info]: Weighted P-Frames: Y:5.0% UV:2.8%
x264 [info]: ref P L0: 50.3% 11.3% 21.1% 8.2% 7.4% 1.7% 0.0%
x264 [info]: ref B L0: 77.6% 16.0% 4.9% 1.5%
x264 [info]: ref B L1: 93.3% 6.7%
x264 [info]: kb/s:9128.72
Инфо-файл
Общее
Уникальный идентификатор : 233512071188893042371366867904397201715 (0xAFACC9FDBACAC08E8F4D84692A425133)
Полное имя : D:ЗагрузкиRzhev.2019.x264.BDRip.(1080p).OlLanDGroup.mkv
Формат : Matroska
Версия формата : Version 4 / Version 2
Размер файла : 9,31 Гбайт
Продолжительность : 1 ч. 58 м.
Общий поток : 11,3 Мбит/сек
Название фильма : Ржев.2019.Rip by: ollan
Дата кодирования : UTC 2020-07-06 04:29:24
Программа кодирования : mkvmerge v6.5.0 ('Isn't she lovely') built on Oct 20 2013 12:50:05
Библиотека кодирования : libebml v1.3.0 + libmatroska v1.4.1
Обложка : Yes
Attachments : Cover - Rzhev.png

Видео
Идентификатор : 1
Формат : AVC
Формат/Информация : Advanced Video Codec
Профиль формата : [email protected]
Настройки формата : CABAC / 5 Ref Frames
Параметр CABAC формата : Да
Параметр ReFrames формата : 5 кадров
Идентификатор кодека : V_MPEG4/ISO/AVC
Продолжительность : 1 ч. 58 м.
Битрейт : 9128 Кбит/сек
Ширина : 1920 пикселей
Высота : 804 пикселя
Соотношение сторон : 2,40:1
Режим частоты кадров : Постоянный
Частота кадров : 24,000 кадра/сек
Цветовое пространство : YUV
Субдискретизация насыщенности : 4:2:0
Битовая глубина : 8 бит
Тип развёртки : Прогрессивная
Бит/(Пиксели*Кадры) : 0.246
Размер потока : 7,35 Гбайт (79%)
Библиотека кодирования : x264 core 146 r2538 121396c
Настройки программы : cabac=1 / ref=5 / deblock=1:-3:-3 / analyse=0x3:0x133 / me=umh / subme=11 / psy=1 / psy_rd=0.95:0.05 / mixed_ref=1 / me_range=64 / chroma_me=1 / trellis=2 / 8x8dct=1 / cqm=0 / deadzone=21,11 / fast_pskip=0 / chroma_qp_offset=-3 / threads=12 / lookahead_threads=3 / sliced_threads=0 / nr=0 / decimate=0 / interlaced=0 / bluray_compat=0 / constrained_intra=0 / bframes=10 / b_pyramid=2 / b_adapt=2 / b_bias=0 / direct=3 / weightb=1 / open_gop=0 / weightp=2 / keyint=240 / keyint_min=23 / scenecut=40 / intra_refresh=0 / rc_lookahead=40 / rc=2pass / mbtree=0 / bitrate=9128 / ratetol=1.0 / qcomp=0.60 / qpmin=0 / qpmax=69 / qpstep=4 / cplxblur=20.0 / qblur=0.5 / vbv_maxrate=50000 / vbv_bufsize=62500 / nal_hrd=none / filler=0 / ip_ratio=1.40 / pb_ratio=1.30 / aq=1:1.00
Язык : English
Default : Да
Forced : Нет

Аудио #1
Идентификатор : 2
Формат : AC-3
Формат/Информация : Audio Coding 3
Идентификатор кодека : A_AC3
Продолжительность : 1 ч. 58 м.
Вид битрейта : Постоянный
Битрейт : 640 Кбит/сек
Каналы : 6 каналов
Расположение каналов : Front: L C R, Side: L R, LFE
Частота : 48,0 КГц
Частота кадров : 31,250 кадров/сек (1536 SPF)
Битовая глубина : 16 бит
Метод сжатия : С потерями
Размер потока : 541 Мбайт (6%)
Заголовок : Лицензия
Язык : Russian
Service kind : Complete Main
Default : Да
Forced : Нет

Аудио #2
Идентификатор : 3
Формат : DTS
Формат/Информация : Digital Theater Systems
Идентификатор кодека : A_DTS
Продолжительность : 1 ч. 58 м.
Вид битрейта : Постоянный
Битрейт : 1509 Кбит/сек
Каналы : 6 каналов
Расположение каналов : Front: L C R, Side: L R, LFE
Частота : 48,0 КГц
Частота кадров : 93,750 кадра/сек (512 SPF)
Битовая глубина : 24 бит
Метод сжатия : С потерями
Размер потока : 1,25 Гбайт (13%)
Заголовок : Лицензия
Язык : Russian
Default : Нет
Forced : Нет

Меню
00:00:00.000 : ru:Chapter 01
00:00:05.417 : ru:Chapter 02
00:11:06.208 : ru:Chapter 03
00:22:02.250 : ru:Chapter 04
00:33:41.792 : ru:Chapter 05
00:46:58.292 : ru:Chapter 06
01:00:38.500 : ru:Chapter 07
01:11:20.500 : ru:Chapter 08
01:21:43.167 : ru:Chapter 09
01:33:59.042 : ru:Chapter 10
01:45:19.250 : ru:Chapter 11
Скриншоты


Релиз от: Rip by:
 

Вложения

  • 24,3 KB Просмотры: 0
    Личеров 0
    Сидеров 0
    Файлов 1
    Объем 9,3 GB

Привет!

Мы группа людей которые решили помочь другим в решении их проблем, а так же пользователям с поиском самых свежих и качественных инфопродуктов. За 4 с небольшим месяца мы создали этот форум на который заходят ежедневно тысячи человек и посещаемость постоянно растёт. Мы создали панель лицензирования для защиты PHP скриптов от воровства и SEO панель для мониторинга наших сайтов и выбора верной стратегии их развития. Мы надеемся что то что мы создали пригодится Вам и возможно Вы поможете нам развиваться и совершенствоваться вместе с Вами.

Статистика форума

Темы
406.678
Сообщения
465.125
Пользователи
84.737
Новый пользователь
Mo0dak

Приложения форума для iOS и Android


У ркн там нет власти ;)
Приватные разговоры
Помощь Пользователи
    Вы не присоединились ни к одной комнате.